<?xml version="1.0" standalone="no"?>
<!DOCTYPE svg PUBLIC "-//W3C//DTD SVG 1.1//EN" "http://www.w3.org/Graphics/SVG/1.1/DTD/svg11.dtd" >
<svg xmlns="http://www.w3.org/2000/svg" xmlns:xlink="http://www.w3.org/1999/xlink" version="1.1">
<metadata>
Created by FontForge 20170910 at Mon Apr  1 18:00:55 2002
 By Jimmy Wärting
Copyright 1989, 1990, 1995 , 2002Adobe Systems Incorporated. All Rights Reserved. 
</metadata>
<defs>
<font id="MinisterStd-Light" horiz-adv-x="556" >
  <font-face 
    font-family="Minister Std"
    font-weight="300"
    font-stretch="normal"
    units-per-em="1000"
    panose-1="0 0 4 0 0 0 0 0 0 0"
    ascent="796"
    descent="-204"
    x-height="456"
    cap-height="722"
    bbox="-167 -260 1100 959"
    underline-thickness="50"
    underline-position="-100"
    stemh="36"
    stemv="76"
    unicode-range="U+0020-FB02"
  />
<missing-glyph horiz-adv-x="500" 
d="M0 0v700h500v-700h-500zM250 395l170 255h-340zM280 350l170 -255v510zM80 50h340l-170 255zM50 605v-510l170 255z" />
    <glyph glyph-name="fi" unicode="fi" horiz-adv-x="593" 
d="M188 412v-296c0 -76 26 -88 98 -100v-24c-32 4 -65 8 -126 8s-94 -4 -120 -8v24c56 8 72 34 72 100v296h-82v36h82v41c0 207 119 307 248 307c77 0 102 -32 102 -60c0 -26 -10 -44 -38 -44c-58 0 -66 64 -124 64c-68 0 -112 -92 -112 -174v-134h180c31 0 82 2 110 24h22
c-3 -23 -5 -43 -5 -79v-273c0 -70 18 -104 80 -104v-24c-32 4 -60 8 -113 8s-81 -4 -113 -8v24c57 9 70 23 70 104v197c0 67 -13 95 -51 95h-180z" />
    <glyph glyph-name="fl" unicode="fl" horiz-adv-x="593" 
d="M495 620v-498c0 -70 18 -106 86 -106v-24c-48 0 -59 9 -116 8c-57 1 -68 -8 -116 -8v24c63 11 70 25 70 106v499c0 90 -33 135 -89 135c-84 0 -142 -56 -142 -198v-110h108v-36h-108v-296c0 -60 34 -90 92 -100v-24c-47 0 -59 9 -122 8c-63 1 -75 -8 -120 -8v24
c62 12 74 46 74 100v296h-82v36h82v41c0 207 106 307 248 307c44 0 86 -14 112 -34c12 10 20 20 30 28h26c-18 -42 -33 -116 -33 -170z" />
    <glyph glyph-name=".notdef" horiz-adv-x="500" 
d="M0 0v700h500v-700h-500zM250 395l170 255h-340zM280 350l170 -255v510zM80 50h340l-170 255zM50 605v-510l170 255z" />
    <glyph glyph-name="space" unicode=" " horiz-adv-x="278" 
 />
    <glyph glyph-name="exclam" unicode="!" horiz-adv-x="296" 
d="M163 186h-30c0 227 -10 412 -45 472c9 20 42 60 60 76c18 -16 51 -56 60 -76c-35 -60 -45 -245 -45 -472zM195 47c1 -39 -25 -63 -47 -63s-48 24 -47 63c-1 39 25 63 47 63s48 -24 47 -63z" />
    <glyph glyph-name="quotedbl" unicode="&#x22;" horiz-adv-x="333" 
d="M128 693c0 -55 -7 -136 -18 -244c-2 -20 -6 -31 -16 -31s-14 11 -16 31c-11 108 -18 189 -18 244c0 27 15 41 34 41s34 -14 34 -41zM273 693c0 -55 -7 -136 -18 -244c-2 -20 -6 -31 -16 -31s-14 11 -16 31c-11 108 -18 189 -18 244c0 27 15 41 34 41s34 -14 34 -41z" />
    <glyph glyph-name="numbersign" unicode="#" 
d="M496 270l-2 -48h-107l-30 -222h-54l30 222h-137l-30 -222h-56l32 222h-110l2 48h115l21 154h-109l2 48h115l30 224h56l-30 -224h135l30 224h56l-30 -224h99l-2 -48h-106l-21 -154h101zM361 424h-136l-21 -154h136z" />
    <glyph glyph-name="dollar" unicode="$" 
d="M272 696v68h28v-68c91 0 136 -66 153 -66c7 0 11 3 15 3l17 -21c-28 -18 -51 -43 -72 -70l-22 9c6 9 6 19 6 29c0 50 -51 80 -97 80v-259c107 -50 192 -106 192 -216c0 -111 -120 -185 -192 -185v-76h-28v76c-127 0 -187 84 -215 84c-4 0 -9 -2 -12 -3l-17 21
c21 16 71 55 105 96l21 -16c-11 -17 -19 -31 -19 -51c0 -66 80 -95 137 -95v281c-93 34 -182 88 -182 199c0 99 83 170 182 180zM300 309v-271c69 9 120 56 120 129c0 65 -64 118 -120 142zM272 411v249c-68 -8 -118 -51 -118 -124c0 -70 60 -104 118 -125z" />
    <glyph glyph-name="percent" unicode="%" horiz-adv-x="778" 
d="M282 512c0 116 -34 164 -88 164s-88 -48 -88 -164s34 -164 88 -164s88 48 88 164zM646 712l-450 -728h-56l450 728h56zM672 184c0 116 -34 164 -88 164s-88 -48 -88 -164s34 -164 88 -164s88 48 88 164zM348 512c0 -138 -70 -200 -154 -200s-154 62 -154 200
s70 200 154 200s154 -62 154 -200zM738 184c0 -138 -70 -200 -154 -200s-154 62 -154 200s70 200 154 200s154 -62 154 -200z" />
    <glyph glyph-name="ampersand" unicode="&#x26;" horiz-adv-x="815" 
d="M759 90l26 -10c-29 -50 -75 -102 -137 -102c-74 0 -114 51 -153 106c-63 -56 -153 -106 -243 -106c-103 0 -208 66 -208 189c0 122 83 186 187 228c-27 29 -53 78 -53 118c0 89 71 151 158 151c59 0 126 -33 126 -100c0 -29 -26 -70 -59 -70c-31 0 -47 19 -47 50
c5 -1 10 -4 15 -4c23 0 31 14 31 33c0 34 -35 57 -66 57c-55 0 -98 -45 -98 -101c0 -79 184 -153 298 -360c47 48 82 105 82 174c0 60 -38 70 -88 70c-6 0 -11 -1 -17 -1v30c17 1 34 4 51 4c27 0 55 -4 82 -4c44 0 87 4 132 4v-28c-135 0 -92 -153 -224 -276
c28 -44 69 -104 128 -104c30 0 62 28 77 52zM251 377c-77 -41 -137 -86 -137 -181c0 -98 90 -162 182 -162c62 0 136 36 183 76c-69 110 -137 192 -228 267z" />
    <glyph glyph-name="quoteright" unicode="&#x2019;" horiz-adv-x="222" 
d="M64 498v27c40 17 54 58 54 96c-5 -1 -8 -1 -14 -1c-19 0 -40 14 -40 54c0 31 17 60 45 60c34 0 49 -31 49 -75c0 -72 -30 -137 -94 -161z" />
    <glyph glyph-name="parenleft" unicode="(" horiz-adv-x="389" 
d="M266 752h31c-93 -153 -135 -272 -135 -494s42 -341 135 -494h-31c-82 100 -180 266 -180 494s98 394 180 494z" />
    <glyph glyph-name="parenright" unicode=")" horiz-adv-x="389" 
d="M92 752h31c82 -100 180 -266 180 -494s-98 -394 -180 -494h-31c93 153 135 272 135 494s-42 341 -135 494z" />
    <glyph glyph-name="asterisk" unicode="*" 
d="M270 796h16l36 -120c-17 -5 -32 -20 -33 -39c2 -22 12 -33 34 -33c28 0 37 18 37 48h116l4 -14l-98 -69c-6 10 -24 25 -37 25c-17 0 -33 -14 -33 -31c0 -24 13 -39 37 -39c8 0 16 4 23 6l44 -113l-13 -11l-99 73c4 5 10 19 10 26c0 20 -14 38 -36 38s-36 -18 -36 -38
c0 -7 6 -21 10 -26l-99 -73l-13 11l44 113c7 -2 15 -6 23 -6c24 0 37 15 37 39c0 17 -16 31 -33 31c-13 0 -31 -15 -37 -25l-98 69l4 14h116c0 -30 9 -48 37 -48c22 0 32 11 34 33c-1 19 -16 34 -33 39z" />
    <glyph glyph-name="plus" unicode="+" horiz-adv-x="600" 
d="M275 249v199h50v-199h199v-50h-199v-199h-50v199h-199v50h199z" />
    <glyph glyph-name="comma" unicode="," horiz-adv-x="278" 
d="M92 -152v30c40 19 54 64 54 108c-5 -1 -8 -2 -14 -2c-19 0 -40 15 -40 59c0 35 17 67 45 67c34 0 49 -34 49 -83c0 -80 -30 -152 -94 -179z" />
    <glyph glyph-name="hyphen" unicode="-" horiz-adv-x="333" 
d="M42 189v70h249v-70h-249z" />
    <glyph glyph-name="period" unicode="." horiz-adv-x="278" 
d="M186 47c1 -39 -25 -63 -47 -63s-48 24 -47 63c-1 39 25 63 47 63s48 -24 47 -63z" />
    <glyph glyph-name="slash" unicode="/" horiz-adv-x="296" 
d="M34 -22h-52l280 756h52z" />
    <glyph glyph-name="zero" unicode="0" 
d="M132 348c0 -190 42 -326 146 -326s146 136 146 326s-42 326 -146 326s-146 -136 -146 -326zM514 348c0 -210 -92 -364 -236 -364s-236 154 -236 364s92 364 236 364s236 -154 236 -364z" />
    <glyph glyph-name="one" unicode="1" 
d="M146 -10v28c93 0 116 24 116 152v370c0 74 -18 86 -48 86c-27 0 -58 -9 -88 -17v29c63 19 149 42 207 84h23c-11 -35 -18 -90 -18 -178v-348c0 -138 13 -178 120 -178v-28c-65 0 -79 11 -156 10c-77 1 -91 -10 -156 -10z" />
    <glyph glyph-name="two" unicode="2" 
d="M161 66h215c64 0 80 16 103 52l22 -8c-14 -49 -54 -87 -67 -132c-8 5 -19 11 -35 15c-15 4 -34 7 -59 7h-192c-48 0 -94 -10 -118 -22h-2l-10 22c130 118 372 257 372 454c0 112 -50 214 -165 214c-77 0 -130 -46 -130 -97c0 -20 6 -33 21 -45c-8 -14 -19 -22 -35 -22
c-28 0 -46 26 -46 53c0 90 115 155 205 155c135 0 240 -88 240 -227c0 -184 -192 -317 -321 -417z" />
    <glyph glyph-name="three" unicode="3" 
d="M178 359l-3 35c111 2 185 50 185 142c0 88 -47 138 -116 138c-70 0 -118 -48 -118 -95c0 -11 7 -25 14 -33c-8 -9 -22 -16 -32 -16c-26 0 -42 20 -42 46c0 80 84 136 204 136c90 0 180 -40 180 -154c0 -88 -62 -151 -155 -162v-2c93 4 199 -66 199 -176
c0 -142 -132 -234 -267 -234s-186 58 -186 116c0 24 18 47 43 47c10 0 19 -6 28 -10c-5 -11 -11 -21 -11 -34c0 -45 45 -81 124 -81c109 0 179 72 179 174c0 110 -74 166 -154 166c-38 0 -55 -2 -72 -3z" />
    <glyph glyph-name="four" unicode="4" 
d="M106 230h244v352h-2zM394 712h45c-8 -21 -13 -43 -13 -65v-417h24c20 0 33 8 42 20v-96c-9 12 -22 20 -42 20h-24v-104c0 -40 11 -55 30 -70l-5 -8c-16 6 -37 9 -63 9s-47 -3 -63 -9l-5 8c19 15 30 30 30 70v104h-278c-16 0 -32 -4 -48 -7c0 37 23 53 41 79z" />
    <glyph glyph-name="five" unicode="5" 
d="M142 640v-199c41 29 88 47 138 47c128 0 214 -98 214 -212c0 -180 -128 -292 -294 -292c-76 0 -160 29 -160 106c0 25 11 55 42 55c9 0 18 -4 26 -8c-5 -7 -8 -19 -8 -33c0 -44 30 -82 99 -82c134 0 205 100 205 226c0 94 -68 184 -156 184c-50 0 -92 -25 -124 -67
l-28 15c6 15 10 40 10 80v176c0 42 -2 56 -5 86h29c6 -6 18 -12 34 -17s37 -9 61 -9c107 0 165 14 215 48c0 -101 -82 -126 -188 -126c-36 0 -70 3 -110 22z" />
    <glyph glyph-name="six" unicode="6" 
d="M278 406c-88 0 -146 -74 -146 -159c0 -89 60 -225 163 -225c95 0 137 82 137 167c0 87 -51 217 -154 217zM290 450c130 0 224 -112 224 -241c0 -127 -104 -225 -230 -225c-151 0 -242 146 -242 306c0 198 142 422 339 422c49 0 81 -22 81 -51c0 -28 -15 -47 -44 -47
c0 42 -19 60 -60 60c-98 0 -226 -160 -226 -297c42 42 84 73 158 73z" />
    <glyph glyph-name="seven" unicode="7" 
d="M161 -22h-53l322 652h-244c-68 -2 -92 -28 -92 -96h-30c-1 16 -4 32 -4 49c0 20 3 40 3 61c0 25 -4 52 -7 78c16 0 39 -6 66 -13c26 -6 56 -13 84 -13h221c35 1 70 10 103 20l16 -20c-44 -46 -62 -95 -97 -162z" />
    <glyph glyph-name="eight" unicode="8" 
d="M518 197c0 -101 -71 -213 -235 -213c-186 0 -245 104 -245 194c0 96 84 163 168 194c-71 36 -129 79 -129 167c0 112 113 173 214 173c100 0 184 -66 184 -169c0 -73 -55 -123 -121 -147v-1c92 -37 164 -90 164 -198zM289 674c-78 0 -142 -42 -142 -110
c0 -113 157 -146 179 -154c55 28 95 66 95 133c0 73 -60 131 -132 131zM442 168c0 114 -129 156 -204 186c-68 -27 -134 -78 -134 -167c0 -106 74 -165 178 -165c85 0 160 60 160 146z" />
    <glyph glyph-name="nine" unicode="9" 
d="M288 282c70 0 136 70 136 160c0 96 -68 232 -171 232c-95 0 -137 -82 -137 -167c0 -87 51 -225 172 -225zM258 240c-138 0 -224 110 -224 236c0 138 104 236 230 236c151 0 242 -146 242 -306c0 -234 -134 -422 -330 -422c-58 0 -98 22 -98 51c0 28 15 47 52 47
c0 -42 19 -60 60 -60c128 0 226 160 226 289c-42 -42 -84 -71 -158 -71z" />
    <glyph glyph-name="colon" unicode=":" horiz-adv-x="278" 
d="M186 385c1 -39 -25 -63 -47 -63s-48 24 -47 63c-1 39 25 63 47 63s48 -24 47 -63zM186 47c1 -39 -25 -63 -47 -63s-48 24 -47 63c-1 39 25 63 47 63s48 -24 47 -63z" />
    <glyph glyph-name="semicolon" unicode=";" horiz-adv-x="278" 
d="M92 -152v30c40 19 54 64 54 108c-5 -1 -8 -2 -14 -2c-19 0 -40 15 -40 59c0 35 17 67 45 67c34 0 49 -34 49 -83c0 -80 -30 -152 -94 -179zM186 385c1 -39 -25 -63 -47 -63s-48 24 -47 63c-1 39 25 63 47 63s48 -24 47 -63z" />
    <glyph glyph-name="less" unicode="&#x3c;" horiz-adv-x="600" 
d="M524 49v-55l-448 204v52l448 204v-55l-386 -175z" />
    <glyph glyph-name="equal" unicode="=" horiz-adv-x="600" 
d="M524 336v-50h-448v50h448zM524 162v-50h-448v50h448z" />
    <glyph glyph-name="greater" unicode="&#x3e;" horiz-adv-x="600" 
d="M76 -6v55l386 175l-386 175v55l448 -204v-52z" />
    <glyph glyph-name="question" unicode="?" horiz-adv-x="370" 
d="M194 194l-32 -8c-26 70 -84 148 -84 180c0 52 208 82 208 214c0 51 -44 108 -105 108c-35 0 -57 -13 -57 -64c-39 0 -64 11 -64 50c0 36 40 60 82 60c95 0 184 -72 184 -187c0 -152 -178 -171 -178 -234c0 -35 29 -80 46 -119zM224 47c1 -39 -25 -63 -47 -63
s-48 24 -47 63c-1 39 25 63 47 63s48 -24 47 -63z" />
    <glyph glyph-name="at" unicode="@" horiz-adv-x="800" 
d="M318 287c0 -67 32 -91 73 -91c45 0 115 80 130 238c0 45 -15 70 -48 70c-54 0 -155 -80 -155 -217zM538 492l11 44h75l-72 -284c-3 -13 -12 -66 40 -66c96 1 149 129 149 224c0 126 -116 296 -322 296c-175 0 -314 -145 -314 -361c0 -175 125 -329 324 -329
c98 0 155 23 218 52l14 -29c-71 -31 -145 -61 -231 -61c-285 0 -411 214 -411 361c0 237 184 395 400 395c203 0 362 -138 362 -323c0 -111 -75 -260 -206 -259c-72 0 -99 62 -98 76h-2c-12 -19 -62 -70 -126 -76c-28 -1 -105 9 -105 135c0 75 68 263 215 263
c52 0 65 -31 79 -58z" />
    <glyph glyph-name="A" unicode="A" horiz-adv-x="741" 
d="M-19 -10v28c51 0 86 39 118 103c45 91 234 516 234 549c0 19 -12 24 -35 24v28c83 0 106 30 146 30c-3 -13 -8 -26 -8 -52c0 -54 188 -532 203 -564c39 -83 64 -118 120 -118v-28c-41 6 -78 10 -145 10s-104 -4 -145 -10v28c70 0 90 26 90 57c0 29 -8 64 -68 219
c-22 2 -46 2 -134 2c-92 0 -116 0 -132 -2c-60 -152 -72 -166 -72 -208c0 -46 42 -68 96 -68v-28c-38 6 -72 10 -134 10s-96 -4 -134 -10zM473 342l-109 297l-121 -297c22 -4 56 -4 114 -4s92 0 116 4z" />
    <glyph glyph-name="B" unicode="B" horiz-adv-x="704" 
d="M143 144v424c0 106 -31 126 -87 126v28c60 0 92 -10 126 -10c64 0 111 10 180 10c164 0 244 -62 244 -158c0 -90 -66 -144 -150 -165v-2c98 -6 193 -75 193 -178c0 -135 -107 -229 -299 -229c-76 0 -116 10 -176 10c-55 0 -92 -10 -118 -10v28c49 0 87 20 87 126z
M229 674v-266c23 0 47 -2 101 -2c120 0 178 48 178 132c0 90 -74 148 -191 148c-30 0 -59 -6 -88 -12zM229 365v-193c0 -102 19 -146 119 -146c120 0 203 62 203 174c0 92 -62 170 -225 170c-35 0 -66 -2 -97 -5z" />
    <glyph glyph-name="C" unicode="C" horiz-adv-x="815" 
d="M706 508h-29c1 6 1 11 1 19c0 125 -113 171 -221 171c-216 0 -315 -174 -315 -346c0 -192 119 -338 326 -338c109 0 215 34 258 143h30c-13 -65 -45 -95 -52 -179c-9 3 -18 9 -28 13c-11 5 -22 9 -38 9s-43 -5 -74 -11c-32 -5 -69 -11 -108 -11c-231 0 -412 136 -412 372
c0 216 167 384 406 384c129 0 177 -40 216 -40c26 0 52 8 68 18h2c-18 -58 -18 -130 -30 -204z" />
    <glyph glyph-name="D" unicode="D" horiz-adv-x="870" 
d="M233 670v-508c0 -95 45 -136 147 -136c254 0 358 156 358 320c0 202 -156 340 -380 340c-43 0 -93 -7 -125 -16zM147 144v424c0 106 -33 126 -91 126v28c60 0 92 -10 134 -10c64 0 118 10 219 10c217 0 415 -109 415 -350c0 -166 -114 -382 -422 -382
c-98 0 -138 10 -212 10c-62 0 -74 -10 -134 -10v28c51 0 91 20 91 126z" />
    <glyph glyph-name="E" unicode="E" horiz-adv-x="704" 
d="M233 667v-286c23 -3 51 -3 130 -3c123 0 145 26 155 92h28c0 -69 -8 -91 -8 -109s8 -41 8 -109h-28c-10 77 -34 90 -156 90c-77 0 -103 -2 -129 -6v-218c0 -60 31 -82 119 -82c228 0 276 62 276 126v15h26c1 -11 2 -22 2 -33c0 -39 -22 -82 -22 -134c0 -10 0 -22 3 -32
c-19 11 -32 17 -70 19c-38 3 -101 3 -224 3c-107 0 -170 -2 -211 -5c-40 -2 -58 -5 -76 -5v28c70 8 91 42 91 126v424c0 84 -21 118 -91 126v28c33 0 70 -3 110 -6c39 -3 81 -4 124 -4c258 0 296 0 336 22c-4 -24 -8 -48 -8 -73c0 -20 4 -40 4 -59c0 -9 -2 -20 -4 -29h-24
c-4 87 -50 103 -200 103c-80 0 -132 -2 -161 -9z" />
    <glyph glyph-name="F" unicode="F" horiz-adv-x="667" 
d="M233 667v-287c22 0 43 -2 81 -2c188 0 202 13 212 90h28c0 -68 -8 -91 -8 -108s8 -40 8 -108h-28c-10 77 -24 90 -212 90c-38 0 -59 -2 -81 -2v-192c0 -104 35 -130 131 -130v-28c-82 6 -120 10 -174 10c-62 0 -96 -4 -134 -10v28c70 8 91 42 91 126v424
c0 84 -21 118 -91 126v28h2c33 0 70 -3 110 -6c39 -3 81 -4 124 -4c257 0 284 0 334 22c-4 -24 -8 -48 -8 -73c0 -20 4 -40 4 -59c0 -9 -2 -20 -4 -29h-24c-4 87 -50 103 -200 103c-80 0 -132 -2 -161 -9z" />
    <glyph glyph-name="G" unicode="G" horiz-adv-x="870" 
d="M735 524h-28c-2 124 -100 174 -227 174c-222 0 -338 -166 -338 -356c0 -184 117 -328 318 -328c114 0 215 45 215 172c0 66 -35 94 -104 94v28c54 0 66 -10 132 -10s78 10 132 10v-28c-69 0 -92 -32 -92 -125c0 -51 22 -81 59 -83v-16c-139 0 -195 -78 -345 -78
c-215 0 -413 118 -413 356c0 224 185 400 436 400c58 0 99 -9 134 -19c34 -9 62 -19 91 -19c12 0 34 4 50 14c-18 -52 -9 -139 -20 -186z" />
    <glyph glyph-name="H" unicode="H" horiz-adv-x="907" 
d="M675 392v176c0 84 -21 118 -91 126v28c56 0 68 -10 134 -10s78 10 134 10v-28c-70 -8 -91 -42 -91 -126v-424c0 -84 21 -118 91 -126v-28c-38 6 -72 10 -134 10s-96 -4 -134 -10v28c70 8 91 42 91 126v198c-83 2 -152 4 -221 4s-138 -2 -221 -4v-198
c0 -84 21 -118 91 -126v-28c-38 6 -72 10 -134 10s-96 -4 -134 -10v28c70 8 91 42 91 126v424c0 84 -21 118 -91 126v28c56 0 68 -10 134 -10s78 10 134 10v-28c-70 -8 -91 -42 -91 -126v-176c83 -2 152 -4 221 -4s138 2 221 4z" />
    <glyph glyph-name="I" unicode="I" horiz-adv-x="389" 
d="M237 568v-424c0 -84 21 -118 91 -126v-28c-38 6 -72 10 -134 10s-96 -4 -134 -10v28c70 8 91 42 91 126v424c0 84 -21 118 -91 126v28c56 0 68 -10 134 -10s78 10 134 10v-28c-70 -8 -91 -42 -91 -126z" />
    <glyph glyph-name="J" unicode="J" horiz-adv-x="389" 
d="M164 104v440c0 106 -36 150 -119 150v28c86 0 93 -10 164 -10c66 0 78 10 134 10v-28c-66 0 -93 -32 -93 -92v-556c0 -142 -120 -282 -205 -282c-31 0 -52 25 -52 42c0 22 11 40 34 40c15 0 47 -28 64 -28c35 0 73 48 73 286z" />
    <glyph glyph-name="K" unicode="K" horiz-adv-x="741" 
d="M233 568v-220c284 265 311 287 311 314c0 20 -11 32 -64 32v28c52 0 63 -10 125 -10s73 10 125 10v-28c-88 0 -140 -60 -391 -302l205 -226c50 -55 90 -124 207 -148v-28c-89 4 -109 10 -156 10c-62 0 -96 -4 -134 -10v28c34 0 51 14 51 29c0 31 -24 51 -235 289l-44 -40
v-152c0 -84 21 -118 91 -126v-28c-38 6 -72 10 -134 10s-96 -4 -134 -10v28c70 8 91 42 91 126v424c0 84 -21 118 -91 126v28c56 0 68 -10 134 -10s78 10 134 10v-28c-70 -8 -91 -42 -91 -126z" />
    <glyph glyph-name="L" unicode="L" horiz-adv-x="667" 
d="M233 568v-422c0 -92 17 -110 143 -110c162 0 216 12 248 156h28c0 -61 -40 -161 -40 -224c-50 32 -89 32 -310 32c-86 0 -137 -2 -171 -5c-35 -2 -53 -5 -75 -5v28c70 8 91 42 91 126v424c0 84 -21 118 -91 126v28c56 0 68 -10 134 -10s78 10 134 10v-28
c-78 -6 -91 -34 -91 -126z" />
    <glyph glyph-name="M" unicode="M" horiz-adv-x="1037" 
d="M78 694v28c45 -4 70 -10 99 -10c23 0 38 1 53 10c6 -60 38 -78 304 -547c250 465 266 483 274 547c14 -8 30 -10 63 -10c29 0 55 6 100 10v-28c-59 -6 -91 -30 -91 -96v-454c0 -94 26 -114 99 -126v-28c-38 6 -72 10 -134 10s-96 -4 -134 -10v28c63 6 83 34 83 126v424
h-2c-108 -180 -278 -518 -278 -568h-20c0 58 -71 195 -284 568h-2c-4 -141 -12 -253 -12 -408c0 -108 22 -130 104 -142v-28c-36 6 -68 10 -127 10s-91 -4 -127 -10v28c56 2 94 35 102 170c10 161 20 273 20 369c0 95 -18 124 -90 137z" />
    <glyph glyph-name="N" unicode="N" horiz-adv-x="889" 
d="M748 550v-572h-18l-544 610v-364c0 -166 28 -198 122 -206v-28c-38 6 -71 10 -133 10s-95 -4 -133 -10v28c80 6 102 40 102 206v336c0 70 -30 122 -102 134v28c29 -4 58 -10 94 -10c28 0 48 2 61 10c21 -40 47 -63 112 -135l397 -438v401c0 84 -32 140 -106 144v28
c52 0 63 -10 124 -10c60 0 71 10 123 10v-28c-73 -4 -99 -60 -99 -144z" />
    <glyph glyph-name="O" unicode="O" horiz-adv-x="870" 
d="M826 356c0 -208 -170 -378 -391 -378s-391 170 -391 378s170 378 391 378s391 -170 391 -378zM142 374c0 -181 130 -354 322 -354c165 0 264 154 264 318c0 181 -130 354 -322 354c-165 0 -264 -154 -264 -318z" />
    <glyph glyph-name="P" unicode="P" horiz-adv-x="648" 
d="M258 370v34c32 -24 68 -32 109 -32c85 0 139 57 139 145c0 117 -79 169 -180 169c-31 0 -62 -5 -93 -10v-532c0 -106 40 -126 99 -126v-28c-58 6 -100 10 -142 10c-62 0 -96 -4 -134 -10v28c70 8 91 42 91 126v424c0 84 -21 118 -91 126v28c56 0 68 -10 134 -10
c54 0 98 10 172 10c138 0 242 -44 242 -192c0 -104 -85 -200 -209 -200c-63 0 -95 10 -137 40z" />
    <glyph glyph-name="Q" unicode="Q" horiz-adv-x="870" 
d="M821 -143l15 -21c-58 -39 -96 -60 -160 -60c-190 0 -288 175 -376 189c-11 2 -27 -4 -37 -8l-8 23c4 5 35 14 57 14c5 0 10 0 15 -1l2 2c-167 41 -285 188 -285 361c0 208 170 378 391 378s391 -170 391 -378s-170 -378 -391 -378c-23 0 -45 2 -64 6l-2 -2
c109 -31 240 -142 357 -142c50 0 66 8 95 17zM142 374c0 -181 130 -354 322 -354c165 0 264 154 264 318c0 181 -130 354 -322 354c-165 0 -264 -154 -264 -318z" />
    <glyph glyph-name="R" unicode="R" horiz-adv-x="704" 
d="M233 332v-188c0 -106 39 -120 95 -126v-28c-38 6 -72 10 -134 10c-66 0 -100 -4 -138 -10v28c70 8 91 42 91 126v424c0 84 -21 118 -91 126v28c56 0 68 -10 134 -10c40 0 80 10 177 10c183 0 250 -78 250 -171c0 -115 -96 -185 -180 -205c49 -118 167 -334 281 -354v-28
c-58 0 -157 44 -196 88c-97 110 -132 185 -170 284h-2c-40 -2 -84 -4 -117 -4zM233 675v-307h65c155 0 233 62 233 150c0 104 -83 168 -216 168c-31 0 -56 -2 -82 -11z" />
    <glyph glyph-name="S" unicode="S" horiz-adv-x="574" 
d="M476 560h-28c0 96 -74 138 -162 138c-76 0 -133 -45 -133 -119c0 -155 359 -173 359 -369c0 -152 -133 -232 -260 -232c-43 0 -86 16 -122 16c-31 0 -61 -7 -90 -16c30 66 24 130 28 221h30c-2 -6 -2 -13 -2 -19c0 -99 67 -166 166 -166c82 0 173 56 173 147
c0 176 -352 183 -352 375c0 125 79 198 209 198c70 0 88 -16 130 -16c25 0 50 7 73 16c-17 -70 -19 -92 -19 -174z" />
    <glyph glyph-name="T" unicode="T" horiz-adv-x="611" 
d="M263 212v464h-129c-70 0 -104 -34 -104 -102h-28c0 54 18 88 18 149c0 10 -1 20 -2 29c36 0 48 -40 114 -40h348c66 0 78 40 114 40c-1 -9 -2 -19 -2 -29c0 -61 18 -95 18 -149h-28c0 68 -34 102 -104 102h-129v-464c0 -156 15 -186 111 -194v-28c-44 6 -83 10 -154 10
s-110 -4 -154 -10v28c96 8 111 38 111 194z" />
    <glyph glyph-name="U" unicode="U" horiz-adv-x="870" 
d="M316 722v-28c-78 -2 -99 -48 -99 -154v-222c0 -190 119 -284 249 -284c140 0 236 100 236 328v158c0 124 -28 166 -132 174v28c59 0 72 -10 141 -10s82 10 141 10v-28c-82 -8 -108 -50 -108 -160v-172c0 -232 -90 -384 -310 -384c-188 0 -303 122 -303 366v193
c0 126 -11 149 -113 157v28c62 0 76 -10 149 -10s87 10 149 10z" />
    <glyph glyph-name="V" unicode="V" horiz-adv-x="685" 
d="M359 -22h-27c-263 690 -268 708 -347 716v28c61 0 74 -10 146 -10s85 10 146 10v-28c-67 0 -96 -18 -96 -69c0 -47 28 -97 192 -502c168 431 187 479 187 493c0 58 -36 72 -87 78v28c47 0 57 -10 113 -10s66 10 113 10v-28c-53 -10 -76 -31 -135 -198
c-52 -143 -187 -430 -205 -518z" />
    <glyph glyph-name="W" unicode="W" horiz-adv-x="981" 
d="M-20 694v28c58 0 70 -10 138 -10s80 10 138 10v-28c-62 -4 -80 -16 -80 -55c0 -37 22 -87 145 -487h2l156 411c-23 101 -53 131 -123 131v28c55 0 67 -10 132 -10s77 10 132 10v-28c-58 0 -70 -14 -70 -44c0 -59 34 -126 146 -504h2c138 390 161 412 161 472
c0 50 -29 74 -110 76v28c53 0 64 -10 126 -10s73 10 126 10v-28c-49 -4 -72 -43 -107 -139c-128 -350 -204 -510 -212 -577h-30c-41 177 -101 349 -154 522h-2c-61 -174 -140 -343 -188 -522h-30c0 42 -100 338 -184 613c-22 72 -54 97 -114 103z" />
    <glyph glyph-name="X" unicode="X" horiz-adv-x="741" 
d="M733 722v-28c-77 -4 -111 -38 -316 -319c199 -295 211 -347 326 -357v-28c-42 6 -80 10 -148 10s-106 -4 -148 -10v28c57 2 74 14 74 37s-16 37 -157 252c-137 -175 -170 -201 -170 -242c0 -35 16 -46 79 -47v-28c-39 6 -74 10 -138 10s-99 -4 -138 -10v28
c117 26 113 52 342 320l-158 235c-60 90 -103 107 -158 121v28c61 0 74 -10 145 -10s84 10 145 10v-28c-63 0 -79 -18 -79 -39c0 -17 15 -39 160 -251c149 206 165 221 165 246c0 29 -19 44 -66 44v28c50 0 61 -10 120 -10s70 10 120 10z" />
    <glyph glyph-name="Y" unicode="Y" horiz-adv-x="648" 
d="M-16 694v28c61 0 74 -10 146 -10s85 10 146 10v-28c-46 -4 -72 -16 -72 -42c0 -32 44 -92 151 -282c135 230 151 236 151 278c0 32 -13 46 -70 46v28c48 0 58 -10 114 -10s66 10 114 10v-28c-84 -6 -94 -36 -286 -366v-184c0 -100 12 -116 112 -126v-28
c-44 6 -83 10 -154 10s-110 -4 -154 -10v28c68 0 110 16 110 126v153l-159 288c-40 73 -76 109 -149 109z" />
    <glyph glyph-name="Z" unicode="Z" horiz-adv-x="667" 
d="M86 561h-28c0 85 16 141 16 159c0 8 -2 22 -5 32c64 -40 82 -40 236 -40c160 0 245 3 291 5c46 3 53 5 55 5h2v-20c-17 -16 -65 -58 -110 -119l-404 -547h317c124 0 168 52 168 143h28c0 -119 -20 -121 -22 -213c-56 34 -66 34 -423 34c-39 0 -85 -2 -125 -5
c-40 -2 -73 -5 -86 -5v28c40 28 66 62 95 102l407 556h-266c-120 0 -146 -39 -146 -115z" />
    <glyph glyph-name="bracketleft" unicode="[" horiz-adv-x="389" 
d="M112 15v488c0 67 -6 211 -8 235h192v-28c-94 0 -120 -24 -120 -116v-670c0 -92 26 -116 120 -116v-28h-192c2 24 8 168 8 235z" />
    <glyph glyph-name="backslash" unicode="\" horiz-adv-x="278" 
d="M-70 734h54l364 -756h-54z" />
    <glyph glyph-name="bracketright" unicode="]" horiz-adv-x="389" 
d="M277 503v-488c0 -67 6 -211 8 -235h-192v28c94 0 120 24 120 116v670c0 92 -26 116 -120 116v28h192c-2 -24 -8 -168 -8 -235z" />
    <glyph glyph-name="asciicircum" unicode="^" horiz-adv-x="600" 
d="M153 331h-62l183 365h52l183 -365h-62l-147 295z" />
    <glyph glyph-name="underscore" unicode="_" horiz-adv-x="500" 
d="M500 -125h-500v50h500v-50z" />
    <glyph glyph-name="quoteleft" unicode="&#x2018;" horiz-adv-x="222" 
d="M158 750v-27c-40 -17 -54 -58 -54 -96c5 1 8 1 14 1c19 0 40 -14 40 -54c0 -31 -17 -60 -45 -60c-34 0 -49 31 -49 75c0 72 30 137 94 161z" />
    <glyph glyph-name="a" unicode="a" horiz-adv-x="500" 
d="M455 63l15 -19c-32 -33 -54 -60 -101 -60c-28 0 -48 16 -59 69c-46 -39 -93 -69 -172 -69c-56 0 -100 26 -100 88c0 92 95 166 278 195c0 109 -15 147 -92 147c-70 0 -102 -34 -102 -56c0 -14 4 -26 9 -35l-20 -13c-13 22 -27 37 -47 55c52 54 118 99 210 99
c84 0 124 -53 124 -135c0 -77 -10 -194 -10 -230c0 -40 10 -57 29 -57c12 0 30 11 38 21zM122 103c0 -39 26 -69 72 -69c48 0 116 37 118 100l4 101c-93 -21 -194 -67 -194 -132z" />
    <glyph glyph-name="b" unicode="b" horiz-adv-x="574" 
d="M172 370v-188c0 -132 28 -168 116 -168c92 0 164 86 164 192s-65 208 -171 208c-43 0 -78 -16 -109 -44zM43 -16v25c39 19 53 33 53 141v464c0 88 -13 102 -69 102v24c44 0 103 24 131 56h20c-4 -36 -6 -78 -6 -212v-179c35 34 84 59 135 59c142 0 229 -102 229 -220
c0 -132 -98 -260 -264 -260c-86 0 -112 16 -150 16s-56 -8 -79 -16z" />
    <glyph glyph-name="c" unicode="c" horiz-adv-x="481" 
d="M444 116l19 -13c-53 -80 -129 -119 -215 -119c-144 0 -210 104 -210 227c0 138 124 253 250 253c56 0 117 -18 117 -62c0 -27 -17 -38 -40 -38c-43 0 -51 60 -107 60c-100 0 -158 -97 -158 -179c0 -115 94 -201 204 -201c57 0 106 28 140 72z" />
    <glyph glyph-name="d" unicode="d" horiz-adv-x="574" 
d="M544 16l-3 -24h-59c-22 0 -32 -3 -42 -8c-21 15 -36 37 -46 60c-35 -36 -84 -60 -137 -60c-130 0 -219 101 -219 228c0 121 99 252 227 252c67 0 89 -14 137 -40v190c0 88 -13 102 -69 102v24c44 0 103 24 131 56h20c-4 -36 -6 -78 -6 -212v-496c2 -46 21 -65 66 -72z
M402 198v183c-31 20 -73 43 -116 43c-103 0 -164 -82 -164 -203c0 -101 71 -187 159 -187c70 0 121 44 121 164z" />
    <glyph glyph-name="e" unicode="e" horiz-adv-x="500" 
d="M442 274h-331c-3 -13 -3 -27 -3 -39c0 -92 75 -181 180 -181c59 0 114 33 148 84l20 -13c-50 -94 -109 -141 -218 -141c-117 0 -200 105 -200 217c0 147 97 263 237 263c117 0 167 -86 167 -190zM116 304h242c0 60 -37 120 -106 120c-65 0 -115 -46 -136 -120z" />
    <glyph glyph-name="f" unicode="f" horiz-adv-x="333" 
d="M188 448h100v-36h-100v-296c0 -76 24 -90 102 -100v-24c-36 4 -69 8 -130 8s-94 -4 -130 -8v24c68 6 82 46 82 100v296h-74v36h74v41c0 207 119 307 206 307c55 0 78 -22 78 -50c0 -25 -17 -40 -43 -40c-28 0 -48 28 -84 28c-49 0 -81 -46 -81 -224v-62z" />
    <glyph glyph-name="g" unicode="g" horiz-adv-x="519" 
d="M520 448l-14 -77c-13 -7 -28 -10 -37 -10c-17 0 -36 3 -49 12c6 -22 10 -43 10 -66c0 -212 -252 -151 -252 -232c0 -20 10 -30 52 -30h130c66 0 156 -29 156 -111c0 -96 -130 -170 -294 -170c-128 0 -180 32 -180 104c0 50 40 82 134 116v2c-59 8 -100 31 -100 100
c43 0 84 20 117 44c-87 22 -139 63 -139 166c0 95 76 168 176 168c118 0 152 -45 209 -45c30 0 49 15 53 29h28zM346 286c0 82 -52 150 -114 150c-65 0 -94 -50 -94 -120c0 -82 52 -148 114 -148c65 0 94 48 94 118zM432 -96c0 50 -44 78 -128 78c-120 0 -192 -46 -192 -108
c0 -46 50 -74 128 -74c132 0 192 60 192 104z" />
    <glyph glyph-name="h" unicode="h" horiz-adv-x="574" 
d="M483 280v-160c0 -70 30 -104 75 -104v-24c-32 4 -60 8 -113 8s-81 -4 -113 -8v24c60 9 75 23 75 104v145c0 93 -43 145 -119 145c-36 0 -74 -16 -116 -60v-230c0 -70 30 -104 76 -104v-24c-31 4 -59 8 -110 8s-79 -4 -110 -8v24c53 9 68 23 68 104v494
c0 88 -13 102 -69 102v24c44 0 103 24 131 56h20c-4 -36 -6 -78 -6 -212v-190c54 48 110 70 154 70c102 0 157 -77 157 -184z" />
    <glyph glyph-name="i" unicode="i" horiz-adv-x="278" 
d="M46 -8v24c51 9 58 23 58 104v177c0 71 -15 95 -58 95v24c31 0 88 20 117 56h22c-3 -23 -5 -43 -5 -79v-273c0 -70 18 -104 80 -104v-24c-30 4 -57 8 -107 8s-77 -4 -107 -8zM86 652c0 26 32 60 72 60c24 0 36 -12 36 -38s-32 -60 -72 -60c-24 0 -36 12 -36 38z" />
    <glyph glyph-name="j" unicode="j" horiz-adv-x="259" 
d="M30 392v24c31 0 96 20 137 56h22c-7 -23 -9 -43 -9 -79v-305c0 -218 -98 -324 -168 -324c-32 0 -66 20 -66 47c0 19 11 43 42 43s40 -28 58 -28c20 0 58 22 58 246v225c0 71 -31 95 -74 95zM90 652c0 26 32 60 72 60c24 0 36 -12 36 -38s-32 -60 -72 -60
c-24 0 -36 12 -36 38z" />
    <glyph glyph-name="k" unicode="k" horiz-adv-x="519" 
d="M164 199v-79c0 -70 10 -94 67 -104v-24c-30 4 -57 8 -106 8c-50 0 -77 -4 -107 -8v24c51 9 70 23 70 104v494c0 88 -13 102 -69 102v24c44 0 103 24 131 56h20c-4 -36 -6 -78 -6 -212v-355c163 134 186 152 186 172c0 25 -17 31 -49 31v24c43 0 53 -9 104 -8
c51 -1 61 8 104 8v-24c-65 0 -111 -44 -254 -167l135 -156c37 -41 75 -85 133 -93v-24c-31 4 -60 8 -112 8s-81 -4 -112 -8v24c36 0 45 8 43 23c-2 20 -16 37 -144 187z" />
    <glyph glyph-name="l" unicode="l" horiz-adv-x="259" 
d="M34 -8v24c51 9 58 23 58 104v494c0 88 -13 102 -59 102v24c34 0 93 24 121 56h20c-4 -36 -6 -78 -6 -212v-464c0 -70 28 -102 79 -104v-24c-30 4 -57 8 -106 8c-50 0 -77 -4 -107 -8z" />
    <glyph glyph-name="m" unicode="m" horiz-adv-x="870" 
d="M780 280v-160c0 -70 29 -104 74 -104v-24c-32 4 -60 8 -113 8s-81 -4 -113 -8v24c60 9 76 23 76 104v145c0 93 -44 145 -120 145c-38 0 -74 -22 -108 -60v-230c0 -70 34 -104 82 -104v-24c-32 4 -60 8 -113 8s-81 -4 -113 -8v24c57 9 72 23 72 104v145
c0 93 -40 145 -116 145c-36 0 -74 -16 -112 -60v-230c0 -70 30 -104 80 -104v-24c-31 4 -60 8 -112 8s-81 -4 -112 -8v24c53 9 68 23 68 104v177c0 71 -15 95 -68 95v24c41 0 98 20 127 56h22c-3 -23 -5 -43 -5 -86c50 48 106 78 166 78c65 0 106 -43 123 -72
c71 60 119 72 157 72c102 0 158 -77 158 -184z" />
    <glyph glyph-name="n" unicode="n" horiz-adv-x="574" 
d="M176 350v-230c0 -70 18 -94 76 -104v-24c-31 4 -59 8 -110 8s-79 -4 -110 -8v24c53 9 68 23 68 104v173c0 71 -15 95 -68 95v24c41 4 92 24 131 60h18c-3 -23 -5 -43 -5 -78c50 48 106 70 150 70c102 0 157 -77 157 -184v-160c0 -70 17 -96 75 -104v-24
c-32 4 -60 8 -113 8s-81 -4 -113 -8v24c60 9 75 23 75 104v145c0 93 -43 145 -119 145c-36 0 -74 -16 -112 -60z" />
    <glyph glyph-name="o" unicode="o" 
d="M518 224c0 -142 -98 -240 -240 -240s-240 98 -240 240s98 240 240 240s240 -98 240 -240zM434 188c0 140 -80 240 -177 240c-81 0 -135 -68 -135 -168c0 -140 80 -240 177 -240c81 0 135 68 135 168z" />
    <glyph glyph-name="p" unicode="p" horiz-adv-x="574" 
d="M26 386v24c24 0 111 35 127 62h22c-4 -26 -4 -51 -4 -77c35 35 72 69 152 69c130 0 213 -116 213 -240c0 -128 -86 -240 -238 -240c-53 0 -93 13 -127 33v-97c0 -96 32 -120 97 -120v-24c-34 4 -64 8 -121 8s-87 -4 -121 -8v24c49 0 69 26 69 124v380c0 62 -23 82 -69 82
zM171 304v-227c36 -31 88 -53 131 -53c93 0 150 68 150 168c0 116 -72 222 -166 222c-77 0 -115 -52 -115 -110z" />
    <glyph glyph-name="q" unicode="q" horiz-adv-x="574" 
d="M404 134v224c-36 32 -82 56 -131 56c-87 0 -151 -70 -151 -182c0 -98 64 -208 174 -208c76 0 108 50 108 110zM559 -200v-24c-33 4 -63 8 -119 8s-86 -4 -119 -8v24c62 3 83 30 83 112v122c-30 -33 -91 -50 -133 -50c-142 0 -233 87 -233 224c0 140 112 256 253 256
c55 0 97 -19 143 -48c9 17 27 30 42 48h28c-16 -30 -24 -88 -24 -130v-418c0 -92 31 -114 79 -116z" />
    <glyph glyph-name="r" unicode="r" horiz-adv-x="370" 
d="M32 388v24c41 4 95 24 128 60h21c-5 -28 -7 -62 -5 -90c50 52 84 82 134 82c32 0 56 -18 56 -50c0 -25 -20 -48 -45 -48c-43 0 -29 30 -77 30c-26 0 -64 -38 -64 -56v-220c0 -60 30 -90 88 -104v-24c-33 4 -63 8 -118 8s-85 -4 -118 -8v24c54 13 72 44 72 104v156
c0 86 -32 112 -72 112z" />
    <glyph glyph-name="s" unicode="s" horiz-adv-x="407" 
d="M57 146l22 -4c-1 -7 -3 -14 -3 -21c0 -69 61 -101 124 -101c44 0 90 23 90 70c0 106 -233 119 -233 248c0 81 73 126 147 126c35 0 72 -12 92 -12c22 0 28 12 50 12c-10 -36 -8 -84 -14 -133h-20c0 72 -53 97 -113 97c-53 0 -78 -28 -78 -58c0 -90 239 -110 239 -243
c0 -99 -73 -143 -162 -143c-23 0 -49 4 -71 8s-40 8 -47 8c-19 0 -23 -10 -33 -12h-15c25 63 2 117 25 158z" />
    <glyph glyph-name="t" unicode="t" horiz-adv-x="352" 
d="M90 150v262h-88v35c63 1 116 61 138 192h33c-4 -13 -7 -55 -7 -87v-104h147v-36h-147v-272c0 -76 34 -102 70 -102c34 0 72 40 90 64l19 -16c-32 -61 -68 -102 -141 -102c-74 0 -114 42 -114 166z" />
    <glyph glyph-name="u" unicode="u" horiz-adv-x="574" 
d="M552 38v-26c-32 0 -73 -10 -106 -28c-23 15 -31 30 -44 60c-41 -42 -100 -60 -158 -60c-110 0 -154 58 -154 158c0 60 6 145 6 201c0 49 -14 81 -61 81v24c83 0 112 4 128 16h19c-11 -45 -12 -84 -12 -140v-164c0 -87 42 -130 112 -130c44 0 91 20 114 51v201
c0 126 -20 142 -64 142v24c83 0 112 4 128 16h22c-6 -30 -10 -62 -10 -108v-216c0 -80 12 -102 80 -102z" />
    <glyph glyph-name="v" unicode="v" horiz-adv-x="463" 
d="M-22 432v24c48 0 58 -8 114 -8s66 8 114 8v-24c-47 0 -66 -12 -66 -46c0 -24 10 -44 110 -298c104 238 112 254 112 288s-14 56 -73 56v24c41 0 50 -8 98 -8s57 8 98 8v-24c-47 0 -73 -47 -94 -96l-153 -352h-24l-138 354c-21 55 -59 94 -98 94z" />
    <glyph glyph-name="w" unicode="w" horiz-adv-x="722" 
d="M196 456v-24c-41 0 -53 -11 -53 -39c0 -24 31 -99 113 -301l87 199c-31 113 -51 141 -92 141v24c41 0 50 -8 98 -8s57 8 98 8v-24c-43 0 -56 -18 -56 -47c0 -31 28 -75 113 -293c102 214 112 242 112 275c0 47 -32 65 -74 65v24c42 0 51 -8 100 -8s58 8 100 8v-24
c-52 0 -70 -32 -89 -77l-163 -371h-18l-113 270l-121 -270h-18l-145 370c-17 43 -51 78 -87 78v24c43 0 53 -8 104 -8s61 8 104 8z" />
    <glyph glyph-name="x" unicode="x" horiz-adv-x="481" 
d="M0 -8v24c42 2 84 28 213 206c-141 199 -131 210 -201 210v24c43 0 52 -8 103 -8s60 8 103 8v-24c-33 0 -43 -4 -45 -19c-2 -12 11 -29 87 -134c68 95 80 106 80 126c0 21 -16 27 -48 27v24c39 0 48 -8 94 -8s55 8 94 8v-24c-48 0 -78 -21 -113 -63l-94 -116
c156 -217 157 -229 217 -237v-24c-31 4 -59 8 -111 8s-80 -4 -111 -8v24c40 2 60 10 60 23c0 15 -14 35 -99 159c-83 -116 -97 -132 -97 -152c0 -18 12 -28 46 -30v-24c-25 4 -47 8 -89 8s-64 -4 -89 -8z" />
    <glyph glyph-name="y" unicode="y" horiz-adv-x="481" 
d="M510 456v-24c-46 0 -76 -27 -128 -151c-158 -375 -256 -517 -348 -517c-30 0 -54 14 -54 40s15 46 38 46c30 0 34 -24 60 -24c30 0 78 46 139 166c-171 414 -173 440 -237 440v24c45 0 54 -8 107 -8s62 8 107 8v-24c-40 -4 -55 -12 -55 -44c0 -34 19 -58 120 -308h2
c103 228 119 258 119 293c0 43 -26 59 -68 59v24c41 0 50 -8 99 -8s58 8 99 8z" />
    <glyph glyph-name="z" unicode="z" horiz-adv-x="481" 
d="M442 135h24c1 -57 -42 -103 -46 -157c-28 11 -46 17 -81 19c-35 3 -85 3 -178 3c-63 0 -97 -2 -116 -5c-18 -2 -22 -5 -25 -5l-4 16c40 26 87 89 122 142l180 272h-119c-101 0 -135 -24 -141 -97h-21c-2 15 -3 28 -3 40c1 25 5 46 6 67c0 14 -3 29 -6 45
c50 -21 64 -27 188 -27c184 0 207 10 224 16l5 -16c-31 -20 -60 -53 -90 -98l-217 -322h155c75 2 129 31 143 107z" />
    <glyph glyph-name="braceleft" unicode="{" horiz-adv-x="389" 
d="M96 259v-2c68 -20 81 -66 81 -147v-205c0 -82 24 -114 120 -113v-28c-135 0 -184 23 -184 135v228c0 74 -15 110 -77 130v2c62 20 77 56 77 129v228c0 112 49 136 184 136v-28c-96 0 -120 -32 -120 -114v-205c0 -81 -13 -126 -81 -146z" />
    <glyph glyph-name="bar" unicode="|" horiz-adv-x="222" 
d="M86 750h50v-1000h-50v1000z" />
    <glyph glyph-name="braceright" unicode="}" horiz-adv-x="389" 
d="M293 257v2c-68 20 -81 65 -81 146v205c0 82 -24 114 -120 114v28c135 0 184 -24 184 -136v-228c0 -73 15 -109 77 -130c-62 -21 -77 -57 -77 -131v-228c0 -112 -49 -135 -184 -135v28c96 -1 120 31 120 113v205c0 81 13 127 81 147z" />
    <glyph glyph-name="asciitilde" unicode="~" horiz-adv-x="600" 
d="M495 290l36 -42c-30 -42 -63 -86 -125 -86c-37 0 -69 15 -102 33c-32 18 -69 35 -115 35c-44 0 -68 -37 -84 -72l-36 42c22 42 58 86 125 86c34 0 73 -15 111 -32c37 -16 75 -36 102 -36c40 0 65 37 88 72z" />
    <glyph glyph-name="exclamdown" unicode="&#xa1;" horiz-adv-x="296" 
d="M133 288h30c0 -227 10 -412 45 -472c-9 -20 -42 -60 -60 -76c-18 16 -51 56 -60 76c35 60 45 245 45 472zM101 427c-1 39 25 63 47 63s48 -24 47 -63c1 -39 -25 -63 -47 -63s-48 24 -47 63z" />
    <glyph glyph-name="cent" unicode="&#xa2;" 
d="M238 215v312c-79 -19 -110 -83 -110 -163c0 -70 52 -129 110 -149zM238 562v82h28v-78c59 0 130 -12 130 -67c0 -27 -17 -43 -55 -43c2 5 3 11 3 17c0 40 -44 59 -78 57v-322c10 -2 19 -4 28 -4c49 0 87 27 122 62l18 -22c-40 -54 -99 -95 -168 -102v-92h-28v94
c-103 15 -166 96 -166 198c0 112 68 194 166 220z" />
    <glyph glyph-name="sterling" unicode="&#xa3;" 
d="M260 390h167v-36h-151c26 -42 39 -79 39 -124c0 -49 -14 -82 -34 -115c45 -23 105 -79 165 -79c23 0 41 13 41 32c0 12 -5 26 -21 32c5 6 11 10 16 10c19 0 35 -15 35 -43c0 -50 -42 -83 -110 -83c-72 0 -118 26 -167 67c-26 -35 -64 -67 -110 -67c-43 0 -78 21 -78 69
c0 58 65 89 116 89c24 0 54 -5 76 -11c4 14 9 31 9 52c0 78 -56 122 -83 171h-99v36h81c-16 31 -25 65 -25 98c0 131 112 224 224 224c88 0 161 -57 161 -129c0 -38 -27 -69 -63 -69c-25 0 -36 13 -36 36c27 0 37 19 37 41c0 55 -54 85 -113 85c-82 0 -136 -56 -136 -134
c0 -51 28 -113 59 -152zM218 73c-19 18 -38 33 -70 33c-34 0 -56 -26 -56 -46c0 -27 17 -40 43 -40c40 0 55 15 83 53z" />
    <glyph glyph-name="fraction" unicode="&#x2044;" horiz-adv-x="167" 
d="M-167 -16l443 728h58l-443 -728h-58z" />
    <glyph glyph-name="yen" unicode="&#xa5;" 
d="M149 -10v28c69 2 85 18 85 127v147h-169v36h161l-32 66h-129v36h112l-68 142c-34 70 -61 106 -113 106v28c49 0 60 -10 118 -10s69 10 118 10v-27c-41 -1 -60 -11 -60 -42c0 -37 19 -58 122 -281c111 229 127 250 127 277c0 31 -11 45 -59 45v28c39 0 47 -10 93 -10
s54 10 93 10v-28c-63 0 -73 -34 -174 -248h117v-36h-135l-31 -66h166v-36h-171v-147c0 -101 22 -121 97 -127v-28c-38 6 -72 10 -134 10s-96 -4 -134 -10z" />
    <glyph glyph-name="florin" unicode="&#x192;" 
d="M220 370h-83l7 36h76c16 218 100 328 216 328c38 0 78 -23 78 -61c0 -28 -22 -43 -44 -43c-5 0 -11 0 -18 1c4 7 8 19 8 28c0 21 -13 35 -34 35c-64 0 -111 -78 -118 -288h108l-9 -36h-99c-28 -454 -148 -530 -244 -530c-45 0 -93 19 -93 72c0 24 16 44 40 44
c8 0 17 -3 24 -8c-5 -8 -6 -17 -6 -26c0 -17 17 -42 43 -42c84 0 128 126 148 490z" />
    <glyph glyph-name="section" unicode="&#xa7;" 
d="M136 541c-9 17 -10 39 -10 55c0 110 98 200 191 200c48 0 88 -24 88 -62c0 -17 -14 -32 -31 -32c-36 0 -51 50 -98 50c-60 0 -101 -56 -101 -113c0 -163 301 -225 301 -461c0 -78 -23 -118 -64 -150c5 -16 8 -34 8 -51c0 -119 -91 -213 -204 -213c-71 0 -98 32 -98 64
c0 26 21 40 41 40c38 0 58 -52 107 -52c64 0 106 59 106 119c0 179 -292 223 -292 442c0 58 21 117 56 164zM149 509c-21 -36 -25 -77 -25 -103c0 -146 231 -226 278 -346c20 14 36 48 36 82c0 142 -207 239 -289 367z" />
    <glyph glyph-name="currency" unicode="&#xa4;" 
d="M92 347c0 -104 85 -189 186 -189c105 -1 186 88 186 190c0 100 -82 189 -186 190c-102 0 -186 -86 -186 -191zM486 98l-55 55c-41 -33 -95 -53 -153 -53s-112 20 -153 53l-55 -55l-42 42l56 56c-35 42 -54 95 -54 152s19 110 54 152l-56 56l42 42l55 -55
c41 33 95 53 153 53s112 -20 153 -53l55 55l42 -42l-56 -56c35 -42 54 -95 54 -152s-19 -110 -54 -152l56 -56z" />
    <glyph glyph-name="quotesingle" unicode="'" horiz-adv-x="222" 
d="M145 693c0 -55 -7 -136 -18 -244c-2 -20 -6 -31 -16 -31s-14 11 -16 31c-11 108 -18 189 -18 244c0 27 15 41 34 41s34 -14 34 -41z" />
    <glyph glyph-name="quotedblleft" unicode="&#x201c;" horiz-adv-x="389" 
d="M158 750v-27c-40 -17 -54 -58 -54 -96c5 1 8 1 14 1c19 0 40 -14 40 -54c0 -31 -17 -60 -45 -60c-34 0 -49 31 -49 75c0 72 30 137 94 161zM325 750v-27c-40 -17 -54 -58 -54 -96c5 1 8 1 14 1c19 0 40 -14 40 -54c0 -31 -17 -60 -45 -60c-34 0 -49 31 -49 75
c0 72 30 137 94 161z" />
    <glyph glyph-name="guillemotleft" unicode="&#xab;" horiz-adv-x="500" 
d="M40 211v26c68 54 129 116 188 180l18 -23c-38 -55 -81 -122 -125 -170c44 -48 87 -115 125 -170l-18 -23c-59 64 -120 126 -188 180zM244 211v26c68 54 129 116 188 180l18 -23c-38 -55 -81 -122 -125 -170c44 -48 87 -115 125 -170l-18 -23c-59 64 -120 126 -188 180z
" />
    <glyph glyph-name="guilsinglleft" unicode="&#x2039;" horiz-adv-x="296" 
d="M40 211v26c68 54 129 116 188 180l18 -23c-38 -55 -81 -122 -125 -170c44 -48 87 -115 125 -170l-18 -23c-59 64 -120 126 -188 180z" />
    <glyph glyph-name="guilsinglright" unicode="&#x203a;" horiz-adv-x="296" 
d="M256 237v-26c-68 -54 -129 -116 -188 -180l-18 23c38 55 81 122 125 170c-44 48 -87 115 -125 170l18 23c59 -64 120 -126 188 -180z" />
    <glyph glyph-name="endash" unicode="&#x2013;" horiz-adv-x="500" 
d="M0 199v50h500v-50h-500z" />
    <glyph glyph-name="dagger" unicode="&#x2020;" 
d="M154 546h102v114c0 64 -20 100 -56 100v24c35 0 49 -8 78 -8s43 8 78 8v-24c-36 0 -56 -36 -56 -100v-114h102c40 0 60 17 60 56h24c0 -41 -9 -55 -9 -78s9 -37 9 -78h-24c0 39 -20 56 -60 56h-102c0 -113 8 -130 34 -192c-28 -64 -42 -310 -42 -546h-28
c0 236 -14 482 -42 546c26 62 34 79 34 192h-102c-40 0 -60 -17 -60 -56h-24c0 41 9 55 9 78s-9 37 -9 78h24c0 -39 20 -56 60 -56z" />
    <glyph glyph-name="daggerdbl" unicode="&#x2021;" 
d="M402 516h-102c0 -127 8 -204 34 -236c-26 -32 -34 -109 -34 -236h102c40 0 60 17 60 56h24c0 -41 -9 -55 -9 -78s9 -37 9 -78h-24c0 39 -20 56 -60 56h-102v-100c0 -64 20 -100 56 -100v-24c-35 0 -49 8 -78 8s-43 -8 -78 -8v24c36 0 56 36 56 100v100h-102
c-40 0 -60 -17 -60 -56h-24c0 41 9 55 9 78s-9 37 -9 78h24c0 -39 20 -56 60 -56h102c0 127 -8 204 -34 236c26 32 34 109 34 236h-102c-40 0 -60 -17 -60 -56h-24c0 41 9 55 9 78s-9 37 -9 78h24c0 -39 20 -56 60 -56h102v100c0 64 -20 100 -56 100v24c35 0 49 -8 78 -8
s43 8 78 8v-24c-36 0 -56 -36 -56 -100v-100h102c40 0 60 17 60 56h24c0 -41 -9 -55 -9 -78s9 -37 9 -78h-24c0 39 -20 56 -60 56z" />
    <glyph glyph-name="periodcentered" unicode="&#xb7;" horiz-adv-x="278" 
d="M79 224c0 33 27 60 60 60s60 -27 60 -60s-27 -60 -60 -60s-60 27 -60 60z" />
    <glyph glyph-name="paragraph" unicode="&#xb6;" horiz-adv-x="600" 
d="M382 684h-61v-902h-58v518c-137 0 -199 88 -199 214c0 128 68 198 210 198h248v-28c-66 0 -82 -22 -82 -96v-806h-58v902z" />
    <glyph glyph-name="bullet" unicode="&#x2022;" horiz-adv-x="500" 
d="M72 356c0 98 80 178 178 178s178 -80 178 -178s-80 -178 -178 -178s-178 80 -178 178z" />
    <glyph glyph-name="quotesinglbase" unicode="&#x201a;" horiz-adv-x="222" 
d="M64 -132v27c40 17 54 58 54 96c-5 -1 -8 -1 -14 -1c-19 0 -40 14 -40 54c0 31 17 60 45 60c34 0 49 -31 49 -75c0 -72 -30 -137 -94 -161z" />
    <glyph glyph-name="quotedblbase" unicode="&#x201e;" horiz-adv-x="389" 
d="M64 -132v27c40 17 54 58 54 96c-5 -1 -8 -1 -14 -1c-19 0 -40 14 -40 54c0 31 17 60 45 60c34 0 49 -31 49 -75c0 -72 -30 -137 -94 -161zM231 -132v27c40 17 54 58 54 96c-5 -1 -8 -1 -14 -1c-19 0 -40 14 -40 54c0 31 17 60 45 60c34 0 49 -31 49 -75
c0 -72 -30 -137 -94 -161z" />
    <glyph glyph-name="quotedblright" unicode="&#x201d;" horiz-adv-x="389" 
d="M64 498v27c40 17 54 58 54 96c-5 -1 -8 -1 -14 -1c-19 0 -40 14 -40 54c0 31 17 60 45 60c34 0 49 -31 49 -75c0 -72 -30 -137 -94 -161zM231 498v27c40 17 54 58 54 96c-5 -1 -8 -1 -14 -1c-19 0 -40 14 -40 54c0 31 17 60 45 60c34 0 49 -31 49 -75
c0 -72 -30 -137 -94 -161z" />
    <glyph glyph-name="guillemotright" unicode="&#xbb;" horiz-adv-x="500" 
d="M460 237v-26c-68 -54 -129 -116 -188 -180l-18 23c38 55 81 122 125 170c-44 48 -87 115 -125 170l18 23c59 -64 120 -126 188 -180zM256 237v-26c-68 -54 -129 -116 -188 -180l-18 23c38 55 81 122 125 170c-44 48 -87 115 -125 170l18 23c59 -64 120 -126 188 -180z
" />
    <glyph glyph-name="ellipsis" unicode="&#x2026;" horiz-adv-x="1000" 
d="M213 47c1 -39 -25 -63 -47 -63s-48 24 -47 63c-1 39 25 63 47 63s48 -24 47 -63zM547 47c1 -39 -25 -63 -47 -63s-48 24 -47 63c-1 39 25 63 47 63s48 -24 47 -63zM881 47c1 -39 -25 -63 -47 -63s-48 24 -47 63c-1 39 25 63 47 63s48 -24 47 -63z" />
    <glyph glyph-name="perthousand" unicode="&#x2030;" horiz-adv-x="1130" 
d="M1024 184c0 116 -34 164 -88 164s-88 -48 -88 -164s34 -164 88 -164s88 48 88 164zM646 712l-450 -728h-56l450 728h56zM282 512c0 116 -34 164 -88 164s-88 -48 -88 -164s34 -164 88 -164s88 48 88 164zM1090 184c0 -138 -70 -200 -154 -200s-154 62 -154 200
s70 200 154 200s154 -62 154 -200zM348 512c0 -138 -70 -200 -154 -200s-154 62 -154 200s70 200 154 200s154 -62 154 -200zM738 184c0 -138 -70 -200 -154 -200s-154 62 -154 200s70 200 154 200s154 -62 154 -200zM672 184c0 116 -34 164 -88 164s-88 -48 -88 -164
s34 -164 88 -164s88 48 88 164z" />
    <glyph glyph-name="questiondown" unicode="&#xbf;" horiz-adv-x="370" 
d="M176 280l32 8c26 -70 84 -148 84 -180c0 -52 -208 -82 -208 -214c0 -51 44 -108 105 -108c35 0 57 13 57 64c39 0 64 -11 64 -50c0 -36 -40 -60 -82 -60c-95 0 -184 72 -184 187c0 152 178 171 178 234c0 35 -29 80 -46 119zM146 427c-1 39 25 63 47 63s48 -24 47 -63
c1 -39 -25 -63 -47 -63s-48 24 -47 63z" />
    <glyph glyph-name="grave" unicode="`" horiz-adv-x="278" 
d="M210 514h-39l-158 98c-18 11 -29 23 -29 42c0 18 13 32 32 32c17 0 30 -8 48 -26z" />
    <glyph glyph-name="acute" unicode="&#xb4;" horiz-adv-x="278" 
d="M107 514h-39l146 146c18 18 31 26 48 26c19 0 32 -14 32 -32c0 -19 -11 -31 -29 -42z" />
    <glyph glyph-name="circumflex" unicode="&#x2c6;" horiz-adv-x="278" 
d="M139 616l-123 -102h-32l124 166h62l124 -166h-32z" />
    <glyph glyph-name="tilde" unicode="&#x2dc;" horiz-adv-x="278" 
d="M275 646h29c-11 -61 -44 -106 -110 -106c-26 0 -51 12 -74 23s-43 23 -61 23c-27 0 -49 -20 -57 -46h-29c15 59 47 102 110 102c24 0 48 -12 71 -23s45 -23 65 -23c29 0 50 23 56 50z" />
    <glyph glyph-name="macron" unicode="&#xaf;" horiz-adv-x="278" 
d="M294 557h-310v52h310v-52z" />
    <glyph glyph-name="breve" unicode="&#x2d8;" horiz-adv-x="278" 
d="M244 672h30c-7 -93 -50 -157 -150 -157c-83 0 -132 67 -132 157h30c10 -65 49 -97 114 -97c62 0 93 41 108 97z" />
    <glyph glyph-name="dotaccent" unicode="&#x2d9;" horiz-adv-x="278" 
d="M194 602c0 -36 -46 -64 -74 -64c-20 0 -36 15 -36 37c0 30 42 63 74 63c21 0 36 -20 36 -36z" />
    <glyph glyph-name="dieresis" unicode="&#xa8;" horiz-adv-x="278" 
d="M284 602c0 -36 -46 -64 -74 -64c-20 0 -36 15 -36 37c0 30 42 63 74 63c21 0 36 -20 36 -36zM116 602c0 -36 -46 -64 -74 -64c-20 0 -36 15 -36 37c0 30 42 63 74 63c21 0 36 -20 36 -36z" />
    <glyph glyph-name="ring" unicode="&#x2da;" horiz-adv-x="278" 
d="M39 610c0 55 45 100 100 100s100 -45 100 -100s-45 -100 -100 -100s-100 45 -100 100zM79 610c0 -33 27 -60 60 -60s60 27 60 60s-27 60 -60 60s-60 -27 -60 -60z" />
    <glyph glyph-name="cedilla" unicode="&#xb8;" horiz-adv-x="278" 
d="M84 -99l42 99h35l-26 -65c10 1 18 3 32 3c41 0 80 -22 80 -69c0 -61 -61 -87 -116 -87c-31 0 -64 5 -92 17l14 37c20 -6 41 -12 62 -12c35 0 58 12 58 38s-19 38 -46 38c-17 0 -28 -2 -36 -5z" />
    <glyph glyph-name="hungarumlaut" unicode="&#x2dd;" horiz-adv-x="278" 
d="M15 514h-39l131 143c14 16 27 29 47 29c19 0 34 -8 34 -28c0 -21 -11 -33 -30 -46zM157 514h-39l146 146c18 18 31 26 48 26c19 0 32 -14 32 -32c0 -19 -11 -31 -29 -42z" />
    <glyph glyph-name="ogonek" unicode="&#x2db;" horiz-adv-x="278" 
d="M258 19v-9c-56 -21 -154 -61 -154 -132c0 -30 29 -44 56 -44c34 0 74 24 102 42l13 -30c-46 -29 -90 -54 -150 -54c-49 0 -95 31 -95 82c0 94 153 130 228 145z" />
    <glyph glyph-name="caron" unicode="&#x2c7;" horiz-adv-x="278" 
d="M16 680l123 -102l123 102h32l-124 -166h-62l-124 166h32z" />
    <glyph glyph-name="emdash" unicode="&#x2014;" horiz-adv-x="1000" 
d="M0 199v50h1000v-50h-1000z" />
    <glyph glyph-name="AE" unicode="&#xc6;" horiz-adv-x="1056" 
d="M516 340v328h-21l-213 -328c40 -3 68 -2 125 -2c59 0 93 1 109 2zM206 18v-28c-37 6 -69 10 -129 10s-92 -4 -129 -10v28c50 12 97 54 157 140c325 466 331 482 331 495c0 25 -7 41 -64 41v28h2c34 0 55 -2 79 -5c25 -2 53 -5 100 -5c297 0 355 -2 423 22
c-4 -24 -8 -48 -8 -73c0 -20 4 -40 4 -59c0 -9 -2 -20 -4 -29h-24c-4 87 -50 103 -200 103c-80 0 -120 -2 -142 -9v-286c28 -3 44 -3 111 -3c123 0 145 26 155 92h28c0 -69 -8 -91 -8 -109s8 -41 8 -109h-28c-10 77 -34 90 -156 90c-65 0 -91 -2 -110 -6v-218
c0 -60 32 -82 134 -82c162 0 244 42 244 120v21h26c1 -11 2 -22 2 -33c0 -39 -22 -82 -22 -134c0 -10 0 -22 3 -32c-21 11 -34 17 -76 19c-41 3 -111 3 -248 3c-89 0 -141 -2 -176 -5c-34 -2 -51 -5 -71 -5v28c54 4 98 28 98 86v190c-32 0 -76 2 -130 2
c-58 0 -101 0 -132 -3c-101 -155 -134 -179 -134 -221c0 -30 19 -54 86 -54z" />
    <glyph glyph-name="ordfeminine" unicode="&#xaa;" horiz-adv-x="300" 
d="M296 472l10 -12c-21 -23 -36 -40 -66 -40c-18 0 -31 14 -38 42c-30 -24 -61 -42 -112 -42c-37 0 -65 20 -65 57c0 55 61 100 180 117c0 62 -9 84 -59 84c-42 0 -63 -16 -63 -29c0 -9 3 -20 6 -25l-17 -8c-8 17 -17 26 -29 37c32 36 75 59 135 59c55 0 80 -31 80 -81
c0 -46 -6 -116 -6 -138c0 -24 7 -34 19 -34c8 0 20 7 25 13zM203 514l2 56c-60 -9 -126 -35 -126 -74c0 -24 17 -40 47 -40c31 0 76 21 77 58z" />
    <glyph glyph-name="Lslash" unicode="&#x141;" horiz-adv-x="667" 
d="M233 568v-160l203 138v-54l-203 -138v-208c0 -92 17 -110 143 -110c162 0 216 12 248 156h28c0 -61 -40 -161 -40 -224c-50 32 -89 32 -310 32c-86 0 -137 -2 -171 -5c-35 -2 -53 -5 -75 -5v28c70 8 91 42 91 126v152l-101 -68v54l101 68v218c0 84 -21 118 -91 126v28
c56 0 68 -10 134 -10s78 10 134 10v-28c-78 -6 -91 -34 -91 -126z" />
    <glyph glyph-name="Oslash" unicode="&#xd8;" horiz-adv-x="870" 
d="M236 124l368 494c-52 45 -120 74 -198 74c-165 0 -264 -154 -264 -318c0 -93 35 -185 94 -250zM640 581l-366 -493c52 -42 116 -68 190 -68c165 0 264 154 264 318c0 90 -33 179 -88 243zM814 814l-126 -169c85 -70 138 -174 138 -289c0 -208 -170 -378 -391 -378
c-75 0 -145 20 -203 54l-112 -150h-64l133 179c-90 70 -145 176 -145 295c0 208 170 378 391 378c79 0 151 -21 211 -59l104 139h64z" />
    <glyph glyph-name="OE" unicode="&#x152;" horiz-adv-x="1148" 
d="M44 356c0 216 168 368 392 368c34 0 69 -3 106 -6c36 -3 74 -6 112 -6h292c62 0 106 14 122 22c-4 -24 -8 -48 -8 -73c0 -20 4 -40 4 -59c0 -9 -2 -20 -4 -29h-24c-4 87 -50 103 -200 103c-80 0 -120 -2 -140 -9v-286c26 -3 42 -3 109 -3c123 0 145 26 155 92h28
c0 -69 -8 -91 -8 -109s8 -41 8 -109h-28c-10 77 -34 90 -156 90c-65 0 -91 -2 -108 -6v-218c0 -60 30 -82 132 -82c162 0 244 42 244 120v21h26c1 -11 2 -22 2 -33c0 -39 -22 -82 -22 -134c0 -10 0 -22 3 -32c-9 7 -23 13 -39 16c-16 4 -35 6 -54 6h-286
c-43 0 -76 -3 -112 -6c-37 -3 -77 -6 -134 -6c-246 0 -412 136 -412 368zM610 202v308c0 116 -34 178 -182 178c-190 0 -288 -158 -288 -332s120 -332 330 -332c115 0 140 65 140 178z" />
    <glyph glyph-name="ordmasculine" unicode="&#xba;" horiz-adv-x="334" 
d="M167 712c92 0 155 -60 155 -146c0 -87 -63 -146 -155 -146c-93 0 -156 59 -156 146c0 86 63 146 156 146zM180 442c53 0 88 43 88 103c0 84 -52 145 -115 145c-53 0 -88 -42 -88 -102c0 -84 52 -146 115 -146z" />
    <glyph glyph-name="ae" unicode="&#xe6;" horiz-adv-x="759" 
d="M122 103c0 -39 26 -69 72 -69c48 0 115 38 144 68c-24 54 -26 86 -26 133c-89 -21 -190 -67 -190 -132zM701 274h-311c-3 -13 -3 -27 -3 -39c0 -92 55 -181 160 -181c59 0 114 33 148 84l20 -13c-50 -94 -109 -141 -189 -141c-84 0 -137 34 -172 88
c-86 -70 -143 -88 -216 -88c-56 0 -100 26 -100 88c0 92 95 166 274 199c0 105 -11 143 -88 143c-70 0 -102 -34 -102 -56c0 -14 4 -26 9 -35l-20 -13c-13 22 -27 37 -47 55c52 54 118 99 194 99c90 0 116 -44 122 -77c36 48 86 77 146 77c125 0 175 -86 175 -190zM391 304
h226c0 60 -37 120 -102 120s-111 -46 -124 -120z" />
    <glyph glyph-name="dotlessi" unicode="&#x131;" horiz-adv-x="278" 
d="M46 -8v24c51 9 58 23 58 104v177c0 71 -15 95 -58 95v24c31 0 88 20 117 56h22c-3 -23 -5 -43 -5 -79v-273c0 -70 18 -104 80 -104v-24c-30 4 -57 8 -107 8s-77 -4 -107 -8z" />
    <glyph glyph-name="lslash" unicode="&#x142;" horiz-adv-x="259" 
d="M168 472l80 70v-52l-80 -71v-299c0 -70 28 -102 79 -104v-24c-30 4 -57 8 -106 8c-50 0 -77 -4 -107 -8v24c51 9 58 23 58 104v231l-78 -69v54l78 69v209c0 88 -13 102 -59 102v24c34 0 93 24 121 56h20c-4 -36 -6 -78 -6 -212v-112z" />
    <glyph glyph-name="oslash" unicode="&#xf8;" 
d="M393 343l-203 -273c30 -32 68 -50 109 -50c81 0 135 68 135 168c0 62 -16 116 -41 155zM163 105l203 273c-29 32 -68 50 -109 50c-81 0 -135 -68 -135 -168c0 -61 15 -114 41 -155zM540 540l-100 -134c50 -42 78 -105 78 -182c0 -142 -98 -240 -240 -240
c-49 0 -92 11 -128 32l-81 -108h-53l99 133c-49 44 -77 107 -77 183c0 142 98 240 240 240c49 0 92 -12 128 -33l81 109h53z" />
    <glyph glyph-name="oe" unicode="&#x153;" horiz-adv-x="870" 
d="M122 260c0 -140 80 -240 163 -240c81 0 131 68 131 168c0 140 -64 240 -159 240c-81 0 -135 -68 -135 -168zM812 274h-331c-3 -13 -3 -27 -3 -39c0 -92 75 -181 180 -181c59 0 114 33 148 84l20 -13c-50 -94 -109 -141 -218 -141c-78 0 -134 47 -161 111
c-31 -69 -92 -111 -173 -111c-138 0 -236 98 -236 240s98 240 236 240c86 0 148 -47 178 -124c34 76 101 124 193 124c117 0 167 -86 167 -190zM486 304h242c0 60 -37 120 -106 120c-65 0 -115 -46 -136 -120z" />
    <glyph glyph-name="germandbls" unicode="&#xdf;" horiz-adv-x="574" 
d="M252 18v-28c-33 6 -62 10 -116 10s-83 -4 -116 -10v28c50 2 82 28 82 134v172c0 70 -22 100 -72 100v24h72v70c0 148 106 278 235 278c89 0 173 -44 173 -152c0 -84 -81 -147 -150 -202c154 -118 176 -150 176 -244c0 -80 -88 -214 -187 -214c-41 0 -60 28 -60 50
c0 28 13 44 36 44c61 0 5 -48 59 -48c34 0 100 58 100 141c0 33 -38 113 -190 235v22c63 29 144 115 144 178c0 80 -56 150 -134 150c-82 0 -126 -86 -126 -230v-404c0 -74 21 -104 74 -104z" />
    <glyph glyph-name="onesuperior" unicode="&#xb9;" horiz-adv-x="333" 
d="M67 279v24c60 0 69 14 69 91v207c0 44 -5 52 -25 52c-17 0 -38 -6 -57 -11v26c41 11 97 25 134 49h19c-7 -20 -9 -53 -9 -106v-201c0 -83 2 -107 72 -107v-24c-22 2 -57 6 -102 6s-79 -4 -101 -6z" />
    <glyph glyph-name="logicalnot" unicode="&#xac;" horiz-adv-x="600" 
d="M474 112v174h-398v50h448v-224h-50z" />
    <glyph glyph-name="mu" unicode="&#xb5;" horiz-adv-x="574" 
d="M552 38v-26c-32 0 -73 -10 -106 -28c-23 15 -31 30 -44 60c-41 -42 -100 -60 -158 -60c-29 0 -54 4 -74 10v-122c0 -46 4 -78 10 -108h-145v24c47 0 59 30 59 81v474c0 51 -12 81 -59 81v24c83 0 112 4 128 16h19c-11 -45 -12 -84 -12 -140v-164c0 -87 42 -130 112 -130
c44 0 91 20 114 51v201c0 126 -20 142 -64 142v24c83 0 112 4 128 16h22c-6 -30 -10 -62 -10 -108v-216c0 -80 12 -102 80 -102z" />
    <glyph glyph-name="trademark" unicode="&#x2122;" horiz-adv-x="990" 
d="M238 692v-308c0 -51 -2 -50 50 -56v-20h-164v20c51 6 50 5 50 56v308h-51c-42 0 -59 -31 -67 -68h-20v88h340v-88h-20c-9 37 -27 68 -68 68h-50zM668 305l-152 311h-2v-224c0 -43 9 -59 52 -64v-20h-131v20c44 5 53 21 53 64v251c-11 30 -40 49 -68 49v20h115l157 -315
l164 315h98v-20c-43 -2 -56 -21 -56 -56v-252c0 -51 0 -50 49 -56v-20h-163v20c52 6 50 5 50 56v235h-2l-155 -314h-9z" />
    <glyph glyph-name="Eth" unicode="&#xd0;" horiz-adv-x="870" 
d="M233 388h303v-42h-303v-184c0 -95 45 -136 147 -136c254 0 358 156 358 320c0 202 -156 340 -380 340c-43 0 -93 -7 -125 -16v-282zM48 388h99v180c0 106 -33 126 -91 126v28c60 0 92 -10 134 -10c64 0 118 10 219 10c217 0 415 -109 415 -350
c0 -166 -114 -382 -422 -382c-98 0 -138 10 -212 10c-62 0 -74 -10 -134 -10v28c51 0 91 20 91 126v202h-99v42z" />
    <glyph glyph-name="onehalf" unicode="&#xbd;" horiz-adv-x="834" 
d="M161 -16l447 728h54l-439 -728h-62zM71 279v24c60 0 69 14 69 91v207c0 44 -5 52 -25 52c-17 0 -38 -6 -57 -11v26c41 11 97 25 134 49h19c-7 -20 -9 -53 -9 -106v-201c0 -83 2 -107 72 -107v-24c-22 2 -57 6 -102 6s-79 -4 -101 -6zM590 46h123c42 0 52 7 67 29l15 -5
c-9 -33 -35 -56 -43 -83c-6 4 -13 7 -23 10c-10 2 -22 3 -39 3h-121c-29 0 -63 -8 -79 -13h-2l-6 19c81 67 231 148 231 266c0 64 -23 121 -98 121c-50 0 -77 -26 -77 -50c0 -12 4 -20 12 -27c-7 -13 -18 -18 -28 -18c-19 0 -30 16 -30 36c0 54 71 93 133 93
c88 0 156 -53 156 -136c0 -114 -123 -194 -191 -243v-2z" />
    <glyph glyph-name="plusminus" unicode="&#xb1;" horiz-adv-x="600" 
d="M275 292v156h50v-156h199v-50h-199v-156h-50v156h-199v50h199zM76 0v50h448v-50h-448z" />
    <glyph glyph-name="Thorn" unicode="&#xde;" horiz-adv-x="648" 
d="M237 568l-4 -18c51 2 80 6 129 6c130 0 242 -40 242 -190c0 -104 -85 -200 -209 -200c-63 0 -95 10 -137 40v34c32 -24 68 -32 109 -32c85 0 139 57 139 145c0 115 -79 167 -180 167c-20 0 -41 -3 -93 -10v-366c0 -84 21 -118 91 -126v-28c-38 6 -72 10 -134 10
s-96 -4 -134 -10v28c70 8 91 42 91 126v424c0 84 -21 118 -91 126v28c56 0 68 -10 134 -10s78 10 134 10v-28c-70 -8 -91 -42 -87 -126z" />
    <glyph glyph-name="onequarter" unicode="&#xbc;" horiz-adv-x="834" 
d="M530 136h153v208h-2zM711 427h33c-4 -13 -5 -26 -5 -39v-252h12c13 0 21 4 28 12v-64c-7 7 -15 12 -28 12h-12v-54c0 -24 6 -33 16 -42l-3 -6c-11 4 -24 6 -41 6c-20 0 -34 -2 -44 -6l-3 6c12 9 19 18 19 42v54h-178c-10 0 -20 -2 -31 -4c2 37 24 54 45 82zM189 -16
l447 728h54l-439 -728h-62zM87 279v24c60 0 69 14 69 91v207c0 44 -5 52 -25 52c-17 0 -38 -6 -57 -11v26c41 11 97 25 134 49h19c-7 -20 -9 -53 -9 -106v-201c0 -83 2 -107 72 -107v-24c-22 2 -57 6 -102 6s-79 -4 -101 -6z" />
    <glyph glyph-name="divide" unicode="&#xf7;" horiz-adv-x="600" 
d="M524 199h-448v50h448v-50zM247 407c0 29 24 53 53 53s53 -24 53 -53s-24 -53 -53 -53s-53 24 -53 53zM247 41c0 29 24 53 53 53s53 -24 53 -53s-24 -53 -53 -53s-53 24 -53 53z" />
    <glyph glyph-name="brokenbar" unicode="&#xa6;" horiz-adv-x="222" 
d="M86 675h50v-350h-50v350zM86 175h50v-350h-50v350z" />
    <glyph glyph-name="degree" unicode="&#xb0;" horiz-adv-x="400" 
d="M104 568c0 -56 39 -100 96 -100s96 44 96 100s-39 100 -96 100s-96 -44 -96 -100zM56 568c0 80 62 144 144 144s144 -64 144 -144s-62 -144 -144 -144s-144 64 -144 144z" />
    <glyph glyph-name="thorn" unicode="&#xfe;" horiz-adv-x="574" 
d="M171 584v-189c35 35 72 69 152 69c130 0 213 -116 213 -240c0 -128 -86 -240 -238 -240c-53 0 -93 13 -127 33v-97c0 -96 32 -120 97 -120v-24c-34 4 -64 8 -121 8s-87 -4 -121 -8v24c49 0 69 26 69 124v690c0 88 -13 102 -59 102v24c34 0 93 24 121 56h20
c-4 -36 -6 -78 -6 -212zM171 304v-227c36 -31 88 -53 131 -53c93 0 150 68 150 168c0 116 -72 222 -166 222c-77 0 -115 -52 -115 -110z" />
    <glyph glyph-name="threequarters" unicode="&#xbe;" horiz-adv-x="834" 
d="M530 136h153v208h-2zM711 427h33c-4 -13 -5 -26 -5 -39v-252h12c13 0 21 4 28 12v-64c-7 7 -15 12 -28 12h-12v-54c0 -24 6 -33 16 -42l-3 -6c-11 4 -24 6 -41 6c-20 0 -34 -2 -44 -6l-3 6c12 9 19 18 19 42v54h-178c-10 0 -20 -2 -31 -4c2 37 24 54 45 82zM197 -16
l447 728h54l-439 -728h-62zM120 492v36c72 2 112 27 112 79c0 48 -23 73 -67 73c-46 0 -71 -25 -71 -48c0 -6 3 -15 8 -19c-10 -8 -19 -12 -26 -12c-17 0 -28 12 -28 30c0 48 54 81 134 81c58 0 116 -26 116 -92c0 -57 -36 -91 -100 -97v-2c64 3 129 -35 129 -105
c0 -85 -80 -141 -173 -141c-88 0 -123 35 -123 70c0 18 13 30 30 30c6 0 12 -3 20 -6c-3 -8 -6 -14 -6 -22c0 -23 24 -38 77 -38c69 0 109 34 109 94c0 62 -42 91 -92 91c-25 0 -36 -1 -49 -2z" />
    <glyph glyph-name="twosuperior" unicode="&#xb2;" horiz-adv-x="333" 
d="M118 331h123c42 0 52 7 67 29l15 -5c-9 -33 -35 -56 -43 -83c-12 8 -29 13 -62 13h-121c-29 0 -63 -8 -79 -13h-2l-6 19c81 67 231 148 231 266c0 64 -23 121 -98 121c-50 0 -77 -26 -77 -50c0 -12 4 -20 12 -27c-7 -13 -18 -18 -28 -18c-19 0 -30 16 -30 36
c0 54 71 93 133 93c88 0 156 -53 156 -136c0 -114 -123 -194 -191 -243v-2z" />
    <glyph glyph-name="registered" unicode="&#xae;" horiz-adv-x="800" 
d="M224 549v14h189c66 0 129 -30 129 -99c0 -57 -39 -98 -89 -115l64 -88c29 -39 64 -79 86 -92v-11h-64c-38 0 -63 71 -138 182h-57v-110c0 -50 1 -48 54 -54v-18h-174v18c54 6 54 4 54 54v263c0 51 2 49 -54 56zM344 543v-185h50c55 0 82 39 82 102c0 62 -40 83 -85 83
h-47zM400 -22c-205 0 -370 169 -370 377c0 209 165 379 370 379c206 0 370 -169 370 -379c0 -208 -164 -377 -370 -377zM86 355c0 -178 143 -335 314 -335c172 0 314 157 314 335s-141 337 -314 337c-172 0 -314 -159 -314 -337z" />
    <glyph glyph-name="minus" unicode="&#x2212;" horiz-adv-x="600" 
d="M524 199h-448v50h448v-50z" />
    <glyph glyph-name="eth" unicode="&#xf0;" 
d="M434 188c0 140 -80 240 -177 240c-81 0 -135 -68 -135 -168c0 -140 80 -240 177 -240c81 0 135 68 135 168zM274 626l-122 -88l-22 30l120 87c-38 40 -102 99 -132 117l16 24c57 -29 132 -80 161 -108l125 90l22 -30l-119 -86c116 -117 195 -273 195 -425
c0 -147 -86 -253 -240 -253c-142 0 -240 98 -240 240s98 240 240 240c38 0 70 -6 96 -16c-14 56 -70 146 -100 178z" />
    <glyph glyph-name="multiply" unicode="&#xd7;" horiz-adv-x="600" 
d="M336 224l188 -188l-36 -36l-188 188l-188 -188l-36 36l188 188l-188 188l36 36l188 -188l188 188l36 -36z" />
    <glyph glyph-name="threesuperior" unicode="&#xb3;" horiz-adv-x="333" 
d="M108 492v36c72 2 112 27 112 79c0 48 -23 73 -67 73c-46 0 -71 -25 -71 -48c0 -6 3 -15 8 -19c-10 -8 -19 -12 -26 -12c-17 0 -28 12 -28 30c0 48 54 81 134 81c58 0 116 -26 116 -92c0 -57 -36 -91 -100 -97v-2c64 3 129 -35 129 -105c0 -85 -80 -141 -173 -141
c-88 0 -123 35 -123 70c0 18 13 30 30 30c6 0 12 -3 20 -6c-3 -8 -6 -14 -6 -22c0 -23 24 -38 77 -38c69 0 109 34 109 94c0 62 -42 91 -92 91c-25 0 -36 -1 -49 -2z" />
    <glyph glyph-name="copyright" unicode="&#xa9;" horiz-adv-x="800" 
d="M400 -22c-205 0 -370 169 -370 377c0 209 165 379 370 379c206 0 370 -169 370 -379c0 -208 -164 -377 -370 -377zM86 355c0 -178 143 -335 314 -335c172 0 314 157 314 335s-141 337 -314 337c-172 0 -314 -159 -314 -337zM567 262h17l-18 -75c-3 -11 -9 -15 -28 -21
c-22 -7 -64 -19 -115 -19c-124 0 -231 62 -231 217c0 91 74 211 237 211c58 0 85 -10 113 -20c17 -5 24 -13 24 -23v-76h-18c-4 47 -33 99 -123 99c-106 0 -158 -79 -159 -185c-1 -116 52 -201 167 -201c77 0 114 45 134 93z" />
    <glyph glyph-name="Aacute" unicode="&#xc1;" horiz-adv-x="741" 
d="M-19 -10v28c51 0 86 39 118 103c45 91 234 516 234 549c0 19 -12 24 -35 24v28c83 0 106 30 146 30c-3 -13 -8 -26 -8 -52c0 -54 188 -532 203 -564c39 -83 64 -118 120 -118v-28c-41 6 -78 10 -145 10s-104 -4 -145 -10v28c70 0 90 26 90 57c0 29 -8 64 -68 219
c-22 2 -46 2 -134 2c-92 0 -116 0 -132 -2c-60 -152 -72 -166 -72 -208c0 -46 42 -68 96 -68v-28c-38 6 -72 10 -134 10s-96 -4 -134 -10zM473 342l-109 297l-121 -297c22 -4 56 -4 114 -4s92 0 116 4zM356 763h-39l146 146c18 18 31 26 48 26c19 0 32 -14 32 -32
c0 -19 -11 -31 -29 -42z" />
    <glyph glyph-name="Acircumflex" unicode="&#xc2;" horiz-adv-x="741" 
d="M-19 -10v28c51 0 86 39 118 103c45 91 234 516 234 549c0 19 -12 24 -35 24v28c83 0 106 30 146 30c-3 -13 -8 -26 -8 -52c0 -54 188 -532 203 -564c39 -83 64 -118 120 -118v-28c-41 6 -78 10 -145 10s-104 -4 -145 -10v28c70 0 90 26 90 57c0 29 -8 64 -68 219
c-22 2 -46 2 -134 2c-92 0 -116 0 -132 -2c-60 -152 -72 -166 -72 -208c0 -46 42 -68 96 -68v-28c-38 6 -72 10 -134 10s-96 -4 -134 -10zM473 342l-109 297l-121 -297c22 -4 56 -4 114 -4s92 0 116 4zM388 865l-123 -102h-32l124 166h62l124 -166h-32z" />
    <glyph glyph-name="Adieresis" unicode="&#xc4;" horiz-adv-x="741" 
d="M-19 -10v28c51 0 86 39 118 103c45 91 234 516 234 549c0 19 -12 24 -35 24v28c83 0 106 30 146 30c-3 -13 -8 -26 -8 -52c0 -54 188 -532 203 -564c39 -83 64 -118 120 -118v-28c-41 6 -78 10 -145 10s-104 -4 -145 -10v28c70 0 90 26 90 57c0 29 -8 64 -68 219
c-22 2 -46 2 -134 2c-92 0 -116 0 -132 -2c-60 -152 -72 -166 -72 -208c0 -46 42 -68 96 -68v-28c-38 6 -72 10 -134 10s-96 -4 -134 -10zM473 342l-109 297l-121 -297c22 -4 56 -4 114 -4s92 0 116 4zM533 851c0 -36 -46 -64 -74 -64c-20 0 -36 15 -36 37c0 30 42 63 74 63
c21 0 36 -20 36 -36zM365 851c0 -36 -46 -64 -74 -64c-20 0 -36 15 -36 37c0 30 42 63 74 63c21 0 36 -20 36 -36z" />
    <glyph glyph-name="Agrave" unicode="&#xc0;" horiz-adv-x="741" 
d="M-19 -10v28c51 0 86 39 118 103c45 91 234 516 234 549c0 19 -12 24 -35 24v28c83 0 106 30 146 30c-3 -13 -8 -26 -8 -52c0 -54 188 -532 203 -564c39 -83 64 -118 120 -118v-28c-41 6 -78 10 -145 10s-104 -4 -145 -10v28c70 0 90 26 90 57c0 29 -8 64 -68 219
c-22 2 -46 2 -134 2c-92 0 -116 0 -132 -2c-60 -152 -72 -166 -72 -208c0 -46 42 -68 96 -68v-28c-38 6 -72 10 -134 10s-96 -4 -134 -10zM473 342l-109 297l-121 -297c22 -4 56 -4 114 -4s92 0 116 4zM459 763h-39l-158 98c-18 11 -29 23 -29 42c0 18 13 32 32 32
c17 0 30 -8 48 -26z" />
    <glyph glyph-name="Aring" unicode="&#xc5;" horiz-adv-x="741" 
d="M-19 -10v28c51 0 86 39 118 103c45 91 234 516 234 549c0 19 -12 24 -35 24v28c83 0 106 30 146 30c-3 -13 -8 -26 -8 -52c0 -54 188 -532 203 -564c39 -83 64 -118 120 -118v-28c-41 6 -78 10 -145 10s-104 -4 -145 -10v28c70 0 90 26 90 57c0 29 -8 64 -68 219
c-22 2 -46 2 -134 2c-92 0 -116 0 -132 -2c-60 -152 -72 -166 -72 -208c0 -46 42 -68 96 -68v-28c-38 6 -72 10 -134 10s-96 -4 -134 -10zM473 342l-109 297l-121 -297c22 -4 56 -4 114 -4s92 0 116 4zM288 859c0 55 45 100 100 100s100 -45 100 -100s-45 -100 -100 -100
s-100 45 -100 100zM328 859c0 -33 27 -60 60 -60s60 27 60 60s-27 60 -60 60s-60 -27 -60 -60z" />
    <glyph glyph-name="Atilde" unicode="&#xc3;" horiz-adv-x="741" 
d="M-19 -10v28c51 0 86 39 118 103c45 91 234 516 234 549c0 19 -12 24 -35 24v28c83 0 106 30 146 30c-3 -13 -8 -26 -8 -52c0 -54 188 -532 203 -564c39 -83 64 -118 120 -118v-28c-41 6 -78 10 -145 10s-104 -4 -145 -10v28c70 0 90 26 90 57c0 29 -8 64 -68 219
c-22 2 -46 2 -134 2c-92 0 -116 0 -132 -2c-60 -152 -72 -166 -72 -208c0 -46 42 -68 96 -68v-28c-38 6 -72 10 -134 10s-96 -4 -134 -10zM473 342l-109 297l-121 -297c22 -4 56 -4 114 -4s92 0 116 4zM524 895h29c-11 -61 -44 -106 -110 -106c-26 0 -51 12 -74 23
s-43 23 -61 23c-27 0 -49 -20 -57 -46h-29c15 59 47 102 110 102c24 0 48 -12 71 -23s45 -23 65 -23c29 0 50 23 56 50z" />
    <glyph glyph-name="Ccedilla" unicode="&#xc7;" horiz-adv-x="815" 
d="M706 508h-29c1 6 1 11 1 19c0 125 -113 171 -221 171c-216 0 -315 -174 -315 -346c0 -192 119 -338 326 -338c109 0 215 34 258 143h30c-13 -65 -45 -95 -52 -179c-9 3 -18 9 -28 13c-11 5 -22 9 -38 9s-43 -5 -74 -11c-32 -5 -69 -11 -108 -11c-6 0 -12 0 -18 1l-17 -44
c10 1 18 3 32 3c41 0 80 -22 80 -69c0 -61 -61 -87 -116 -87c-31 0 -64 5 -92 17l14 37c20 -6 41 -12 62 -12c35 0 58 12 58 38s-19 38 -46 38c-17 0 -28 -2 -36 -5l-7 6l34 80c-206 18 -360 151 -360 369c0 216 167 384 406 384c129 0 177 -40 216 -40c26 0 52 8 68 18h2
c-18 -58 -18 -130 -30 -204z" />
    <glyph glyph-name="Eacute" unicode="&#xc9;" horiz-adv-x="704" 
d="M233 667v-286c23 -3 51 -3 130 -3c123 0 145 26 155 92h28c0 -69 -8 -91 -8 -109s8 -41 8 -109h-28c-10 77 -34 90 -156 90c-77 0 -103 -2 -129 -6v-218c0 -60 31 -82 119 -82c228 0 276 62 276 126v15h26c1 -11 2 -22 2 -33c0 -39 -22 -82 -22 -134c0 -10 0 -22 3 -32
c-19 11 -32 17 -70 19c-38 3 -101 3 -224 3c-107 0 -170 -2 -211 -5c-40 -2 -58 -5 -76 -5v28c70 8 91 42 91 126v424c0 84 -21 118 -91 126v28c33 0 70 -3 110 -6c39 -3 81 -4 124 -4c258 0 296 0 336 22c-4 -24 -8 -48 -8 -73c0 -20 4 -40 4 -59c0 -9 -2 -20 -4 -29h-24
c-4 87 -50 103 -200 103c-80 0 -132 -2 -161 -9zM343 763h-39l146 146c18 18 31 26 48 26c19 0 32 -14 32 -32c0 -19 -11 -31 -29 -42z" />
    <glyph glyph-name="Ecircumflex" unicode="&#xca;" horiz-adv-x="704" 
d="M233 667v-286c23 -3 51 -3 130 -3c123 0 145 26 155 92h28c0 -69 -8 -91 -8 -109s8 -41 8 -109h-28c-10 77 -34 90 -156 90c-77 0 -103 -2 -129 -6v-218c0 -60 31 -82 119 -82c228 0 276 62 276 126v15h26c1 -11 2 -22 2 -33c0 -39 -22 -82 -22 -134c0 -10 0 -22 3 -32
c-19 11 -32 17 -70 19c-38 3 -101 3 -224 3c-107 0 -170 -2 -211 -5c-40 -2 -58 -5 -76 -5v28c70 8 91 42 91 126v424c0 84 -21 118 -91 126v28c33 0 70 -3 110 -6c39 -3 81 -4 124 -4c258 0 296 0 336 22c-4 -24 -8 -48 -8 -73c0 -20 4 -40 4 -59c0 -9 -2 -20 -4 -29h-24
c-4 87 -50 103 -200 103c-80 0 -132 -2 -161 -9zM375 865l-123 -102h-32l124 166h62l124 -166h-32z" />
    <glyph glyph-name="Edieresis" unicode="&#xcb;" horiz-adv-x="704" 
d="M233 667v-286c23 -3 51 -3 130 -3c123 0 145 26 155 92h28c0 -69 -8 -91 -8 -109s8 -41 8 -109h-28c-10 77 -34 90 -156 90c-77 0 -103 -2 -129 -6v-218c0 -60 31 -82 119 -82c228 0 276 62 276 126v15h26c1 -11 2 -22 2 -33c0 -39 -22 -82 -22 -134c0 -10 0 -22 3 -32
c-19 11 -32 17 -70 19c-38 3 -101 3 -224 3c-107 0 -170 -2 -211 -5c-40 -2 -58 -5 -76 -5v28c70 8 91 42 91 126v424c0 84 -21 118 -91 126v28c33 0 70 -3 110 -6c39 -3 81 -4 124 -4c258 0 296 0 336 22c-4 -24 -8 -48 -8 -73c0 -20 4 -40 4 -59c0 -9 -2 -20 -4 -29h-24
c-4 87 -50 103 -200 103c-80 0 -132 -2 -161 -9zM520 851c0 -36 -46 -64 -74 -64c-20 0 -36 15 -36 37c0 30 42 63 74 63c21 0 36 -20 36 -36zM352 851c0 -36 -46 -64 -74 -64c-20 0 -36 15 -36 37c0 30 42 63 74 63c21 0 36 -20 36 -36z" />
    <glyph glyph-name="Egrave" unicode="&#xc8;" horiz-adv-x="704" 
d="M233 667v-286c23 -3 51 -3 130 -3c123 0 145 26 155 92h28c0 -69 -8 -91 -8 -109s8 -41 8 -109h-28c-10 77 -34 90 -156 90c-77 0 -103 -2 -129 -6v-218c0 -60 31 -82 119 -82c228 0 276 62 276 126v15h26c1 -11 2 -22 2 -33c0 -39 -22 -82 -22 -134c0 -10 0 -22 3 -32
c-19 11 -32 17 -70 19c-38 3 -101 3 -224 3c-107 0 -170 -2 -211 -5c-40 -2 -58 -5 -76 -5v28c70 8 91 42 91 126v424c0 84 -21 118 -91 126v28c33 0 70 -3 110 -6c39 -3 81 -4 124 -4c258 0 296 0 336 22c-4 -24 -8 -48 -8 -73c0 -20 4 -40 4 -59c0 -9 -2 -20 -4 -29h-24
c-4 87 -50 103 -200 103c-80 0 -132 -2 -161 -9zM446 763h-39l-158 98c-18 11 -29 23 -29 42c0 18 13 32 32 32c17 0 30 -8 48 -26z" />
    <glyph glyph-name="Iacute" unicode="&#xcd;" horiz-adv-x="389" 
d="M237 568v-424c0 -84 21 -118 91 -126v-28c-38 6 -72 10 -134 10s-96 -4 -134 -10v28c70 8 91 42 91 126v424c0 84 -21 118 -91 126v28c56 0 68 -10 134 -10s78 10 134 10v-28c-70 -8 -91 -42 -91 -126zM163 763h-39l146 146c18 18 31 26 48 26c19 0 32 -14 32 -32
c0 -19 -11 -31 -29 -42z" />
    <glyph glyph-name="Icircumflex" unicode="&#xce;" horiz-adv-x="389" 
d="M237 568v-424c0 -84 21 -118 91 -126v-28c-38 6 -72 10 -134 10s-96 -4 -134 -10v28c70 8 91 42 91 126v424c0 84 -21 118 -91 126v28c56 0 68 -10 134 -10s78 10 134 10v-28c-70 -8 -91 -42 -91 -126zM195 865l-123 -102h-32l124 166h62l124 -166h-32z" />
    <glyph glyph-name="Idieresis" unicode="&#xcf;" horiz-adv-x="389" 
d="M237 568v-424c0 -84 21 -118 91 -126v-28c-38 6 -72 10 -134 10s-96 -4 -134 -10v28c70 8 91 42 91 126v424c0 84 -21 118 -91 126v28c56 0 68 -10 134 -10s78 10 134 10v-28c-70 -8 -91 -42 -91 -126zM340 851c0 -36 -46 -64 -74 -64c-20 0 -36 15 -36 37
c0 30 42 63 74 63c21 0 36 -20 36 -36zM172 851c0 -36 -46 -64 -74 -64c-20 0 -36 15 -36 37c0 30 42 63 74 63c21 0 36 -20 36 -36z" />
    <glyph glyph-name="Igrave" unicode="&#xcc;" horiz-adv-x="389" 
d="M237 568v-424c0 -84 21 -118 91 -126v-28c-38 6 -72 10 -134 10s-96 -4 -134 -10v28c70 8 91 42 91 126v424c0 84 -21 118 -91 126v28c56 0 68 -10 134 -10s78 10 134 10v-28c-70 -8 -91 -42 -91 -126zM266 763h-39l-158 98c-18 11 -29 23 -29 42c0 18 13 32 32 32
c17 0 30 -8 48 -26z" />
    <glyph glyph-name="Ntilde" unicode="&#xd1;" horiz-adv-x="889" 
d="M748 550v-572h-18l-544 610v-364c0 -166 28 -198 122 -206v-28c-38 6 -71 10 -133 10s-95 -4 -133 -10v28c80 6 102 40 102 206v336c0 70 -30 122 -102 134v28c29 -4 58 -10 94 -10c28 0 48 2 61 10c21 -40 47 -63 112 -135l397 -438v401c0 84 -32 140 -106 144v28
c52 0 63 -10 124 -10c60 0 71 10 123 10v-28c-73 -4 -99 -60 -99 -144zM598 895h29c-11 -61 -44 -106 -110 -106c-26 0 -51 12 -74 23s-43 23 -61 23c-27 0 -49 -20 -57 -46h-29c15 59 47 102 110 102c24 0 48 -12 71 -23s45 -23 65 -23c29 0 50 23 56 50z" />
    <glyph glyph-name="Oacute" unicode="&#xd3;" horiz-adv-x="870" 
d="M826 356c0 -208 -170 -378 -391 -378s-391 170 -391 378s170 378 391 378s391 -170 391 -378zM142 374c0 -181 130 -354 322 -354c165 0 264 154 264 318c0 181 -130 354 -322 354c-165 0 -264 -154 -264 -318zM397 763h-39l146 146c18 18 31 26 48 26
c19 0 32 -14 32 -32c0 -19 -11 -31 -29 -42z" />
    <glyph glyph-name="Ocircumflex" unicode="&#xd4;" horiz-adv-x="870" 
d="M826 356c0 -208 -170 -378 -391 -378s-391 170 -391 378s170 378 391 378s391 -170 391 -378zM142 374c0 -181 130 -354 322 -354c165 0 264 154 264 318c0 181 -130 354 -322 354c-165 0 -264 -154 -264 -318zM429 865l-123 -102h-32l124 166h62l124 -166h-32z" />
    <glyph glyph-name="Odieresis" unicode="&#xd6;" horiz-adv-x="870" 
d="M826 356c0 -208 -170 -378 -391 -378s-391 170 -391 378s170 378 391 378s391 -170 391 -378zM142 374c0 -181 130 -354 322 -354c165 0 264 154 264 318c0 181 -130 354 -322 354c-165 0 -264 -154 -264 -318zM574 851c0 -36 -46 -64 -74 -64c-20 0 -36 15 -36 37
c0 30 42 63 74 63c21 0 36 -20 36 -36zM406 851c0 -36 -46 -64 -74 -64c-20 0 -36 15 -36 37c0 30 42 63 74 63c21 0 36 -20 36 -36z" />
    <glyph glyph-name="Ograve" unicode="&#xd2;" horiz-adv-x="870" 
d="M826 356c0 -208 -170 -378 -391 -378s-391 170 -391 378s170 378 391 378s391 -170 391 -378zM142 374c0 -181 130 -354 322 -354c165 0 264 154 264 318c0 181 -130 354 -322 354c-165 0 -264 -154 -264 -318zM500 763h-39l-158 98c-18 11 -29 23 -29 42
c0 18 13 32 32 32c17 0 30 -8 48 -26z" />
    <glyph glyph-name="Otilde" unicode="&#xd5;" horiz-adv-x="870" 
d="M826 356c0 -208 -170 -378 -391 -378s-391 170 -391 378s170 378 391 378s391 -170 391 -378zM142 374c0 -181 130 -354 322 -354c165 0 264 154 264 318c0 181 -130 354 -322 354c-165 0 -264 -154 -264 -318zM565 895h29c-11 -61 -44 -106 -110 -106
c-26 0 -51 12 -74 23s-43 23 -61 23c-27 0 -49 -20 -57 -46h-29c15 59 47 102 110 102c24 0 48 -12 71 -23s45 -23 65 -23c29 0 50 23 56 50z" />
    <glyph glyph-name="Scaron" unicode="&#x160;" horiz-adv-x="574" 
d="M476 560h-28c0 96 -74 138 -162 138c-76 0 -133 -45 -133 -119c0 -155 359 -173 359 -369c0 -152 -133 -232 -260 -232c-43 0 -86 16 -122 16c-31 0 -61 -7 -90 -16c30 66 24 130 28 221h30c-2 -6 -2 -13 -2 -19c0 -99 67 -166 166 -166c82 0 173 56 173 147
c0 176 -352 183 -352 375c0 125 79 198 209 198c70 0 88 -16 130 -16c25 0 50 7 73 16c-17 -70 -19 -92 -19 -174zM205 929l123 -102l123 102h32l-124 -166h-62l-124 166h32z" />
    <glyph glyph-name="Uacute" unicode="&#xda;" horiz-adv-x="870" 
d="M316 722v-28c-78 -2 -99 -48 -99 -154v-222c0 -190 119 -284 249 -284c140 0 236 100 236 328v158c0 124 -28 166 -132 174v28c59 0 72 -10 141 -10s82 10 141 10v-28c-82 -8 -108 -50 -108 -160v-172c0 -232 -90 -384 -310 -384c-188 0 -303 122 -303 366v193
c0 126 -11 149 -113 157v28c62 0 76 -10 149 -10s87 10 149 10zM426 763h-39l146 146c18 18 31 26 48 26c19 0 32 -14 32 -32c0 -19 -11 -31 -29 -42z" />
    <glyph glyph-name="Ucircumflex" unicode="&#xdb;" horiz-adv-x="870" 
d="M316 722v-28c-78 -2 -99 -48 -99 -154v-222c0 -190 119 -284 249 -284c140 0 236 100 236 328v158c0 124 -28 166 -132 174v28c59 0 72 -10 141 -10s82 10 141 10v-28c-82 -8 -108 -50 -108 -160v-172c0 -232 -90 -384 -310 -384c-188 0 -303 122 -303 366v193
c0 126 -11 149 -113 157v28c62 0 76 -10 149 -10s87 10 149 10zM458 865l-123 -102h-32l124 166h62l124 -166h-32z" />
    <glyph glyph-name="Udieresis" unicode="&#xdc;" horiz-adv-x="870" 
d="M316 722v-28c-78 -2 -99 -48 -99 -154v-222c0 -190 119 -284 249 -284c140 0 236 100 236 328v158c0 124 -28 166 -132 174v28c59 0 72 -10 141 -10s82 10 141 10v-28c-82 -8 -108 -50 -108 -160v-172c0 -232 -90 -384 -310 -384c-188 0 -303 122 -303 366v193
c0 126 -11 149 -113 157v28c62 0 76 -10 149 -10s87 10 149 10zM603 851c0 -36 -46 -64 -74 -64c-20 0 -36 15 -36 37c0 30 42 63 74 63c21 0 36 -20 36 -36zM435 851c0 -36 -46 -64 -74 -64c-20 0 -36 15 -36 37c0 30 42 63 74 63c21 0 36 -20 36 -36z" />
    <glyph glyph-name="Ugrave" unicode="&#xd9;" horiz-adv-x="870" 
d="M316 722v-28c-78 -2 -99 -48 -99 -154v-222c0 -190 119 -284 249 -284c140 0 236 100 236 328v158c0 124 -28 166 -132 174v28c59 0 72 -10 141 -10s82 10 141 10v-28c-82 -8 -108 -50 -108 -160v-172c0 -232 -90 -384 -310 -384c-188 0 -303 122 -303 366v193
c0 126 -11 149 -113 157v28c62 0 76 -10 149 -10s87 10 149 10zM529 763h-39l-158 98c-18 11 -29 23 -29 42c0 18 13 32 32 32c17 0 30 -8 48 -26z" />
    <glyph glyph-name="Yacute" unicode="&#xdd;" horiz-adv-x="648" 
d="M-16 694v28c61 0 74 -10 146 -10s85 10 146 10v-28c-46 -4 -72 -16 -72 -42c0 -32 44 -92 151 -282c135 230 151 236 151 278c0 32 -13 46 -70 46v28c48 0 58 -10 114 -10s66 10 114 10v-28c-84 -6 -94 -36 -286 -366v-184c0 -100 12 -116 112 -126v-28
c-44 6 -83 10 -154 10s-110 -4 -154 -10v28c68 0 110 16 110 126v153l-159 288c-40 73 -76 109 -149 109zM333 763h-39l146 146c18 18 31 26 48 26c19 0 32 -14 32 -32c0 -19 -11 -31 -29 -42z" />
    <glyph glyph-name="Ydieresis" unicode="&#x178;" horiz-adv-x="648" 
d="M-16 694v28c61 0 74 -10 146 -10s85 10 146 10v-28c-46 -4 -72 -16 -72 -42c0 -32 44 -92 151 -282c135 230 151 236 151 278c0 32 -13 46 -70 46v28c48 0 58 -10 114 -10s66 10 114 10v-28c-84 -6 -94 -36 -286 -366v-184c0 -100 12 -116 112 -126v-28
c-44 6 -83 10 -154 10s-110 -4 -154 -10v28c68 0 110 16 110 126v153l-159 288c-40 73 -76 109 -149 109zM510 851c0 -36 -46 -64 -74 -64c-20 0 -36 15 -36 37c0 30 42 63 74 63c21 0 36 -20 36 -36zM342 851c0 -36 -46 -64 -74 -64c-20 0 -36 15 -36 37c0 30 42 63 74 63
c21 0 36 -20 36 -36z" />
    <glyph glyph-name="Zcaron" unicode="&#x17d;" horiz-adv-x="667" 
d="M86 561h-28c0 85 16 141 16 159c0 8 -2 22 -5 32c64 -40 82 -40 236 -40c160 0 245 3 291 5c46 3 53 5 55 5h2v-20c-17 -16 -65 -58 -110 -119l-404 -547h317c124 0 168 52 168 143h28c0 -119 -20 -121 -22 -213c-56 34 -66 34 -423 34c-39 0 -85 -2 -125 -5
c-40 -2 -73 -5 -86 -5v28c40 28 66 62 95 102l407 556h-266c-120 0 -146 -39 -146 -115zM252 929l123 -102l123 102h32l-124 -166h-62l-124 166h32z" />
    <glyph glyph-name="aacute" unicode="&#xe1;" horiz-adv-x="500" 
d="M455 63l15 -19c-32 -33 -54 -60 -101 -60c-28 0 -48 16 -59 69c-46 -39 -93 -69 -172 -69c-56 0 -100 26 -100 88c0 92 95 166 278 195c0 109 -15 147 -92 147c-70 0 -102 -34 -102 -56c0 -14 4 -26 9 -35l-20 -13c-13 22 -27 37 -47 55c52 54 118 99 210 99
c84 0 124 -53 124 -135c0 -77 -10 -194 -10 -230c0 -40 10 -57 29 -57c12 0 30 11 38 21zM122 103c0 -39 26 -69 72 -69c48 0 116 37 118 100l4 101c-93 -21 -194 -67 -194 -132zM206 514h-39l146 146c18 18 31 26 48 26c19 0 32 -14 32 -32c0 -19 -11 -31 -29 -42z" />
    <glyph glyph-name="acircumflex" unicode="&#xe2;" horiz-adv-x="500" 
d="M455 63l15 -19c-32 -33 -54 -60 -101 -60c-28 0 -48 16 -59 69c-46 -39 -93 -69 -172 -69c-56 0 -100 26 -100 88c0 92 95 166 278 195c0 109 -15 147 -92 147c-70 0 -102 -34 -102 -56c0 -14 4 -26 9 -35l-20 -13c-13 22 -27 37 -47 55c52 54 118 99 210 99
c84 0 124 -53 124 -135c0 -77 -10 -194 -10 -230c0 -40 10 -57 29 -57c12 0 30 11 38 21zM122 103c0 -39 26 -69 72 -69c48 0 116 37 118 100l4 101c-93 -21 -194 -67 -194 -132zM238 616l-123 -102h-32l124 166h62l124 -166h-32z" />
    <glyph glyph-name="adieresis" unicode="&#xe4;" horiz-adv-x="500" 
d="M455 63l15 -19c-32 -33 -54 -60 -101 -60c-28 0 -48 16 -59 69c-46 -39 -93 -69 -172 -69c-56 0 -100 26 -100 88c0 92 95 166 278 195c0 109 -15 147 -92 147c-70 0 -102 -34 -102 -56c0 -14 4 -26 9 -35l-20 -13c-13 22 -27 37 -47 55c52 54 118 99 210 99
c84 0 124 -53 124 -135c0 -77 -10 -194 -10 -230c0 -40 10 -57 29 -57c12 0 30 11 38 21zM122 103c0 -39 26 -69 72 -69c48 0 116 37 118 100l4 101c-93 -21 -194 -67 -194 -132zM383 602c0 -36 -46 -64 -74 -64c-20 0 -36 15 -36 37c0 30 42 63 74 63c21 0 36 -20 36 -36z
M215 602c0 -36 -46 -64 -74 -64c-20 0 -36 15 -36 37c0 30 42 63 74 63c21 0 36 -20 36 -36z" />
    <glyph glyph-name="agrave" unicode="&#xe0;" horiz-adv-x="500" 
d="M455 63l15 -19c-32 -33 -54 -60 -101 -60c-28 0 -48 16 -59 69c-46 -39 -93 -69 -172 -69c-56 0 -100 26 -100 88c0 92 95 166 278 195c0 109 -15 147 -92 147c-70 0 -102 -34 -102 -56c0 -14 4 -26 9 -35l-20 -13c-13 22 -27 37 -47 55c52 54 118 99 210 99
c84 0 124 -53 124 -135c0 -77 -10 -194 -10 -230c0 -40 10 -57 29 -57c12 0 30 11 38 21zM122 103c0 -39 26 -69 72 -69c48 0 116 37 118 100l4 101c-93 -21 -194 -67 -194 -132zM309 514h-39l-158 98c-18 11 -29 23 -29 42c0 18 13 32 32 32c17 0 30 -8 48 -26z" />
    <glyph glyph-name="aring" unicode="&#xe5;" horiz-adv-x="500" 
d="M455 63l15 -19c-32 -33 -54 -60 -101 -60c-28 0 -48 16 -59 69c-46 -39 -93 -69 -172 -69c-56 0 -100 26 -100 88c0 92 95 166 278 195c0 109 -15 147 -92 147c-70 0 -102 -34 -102 -56c0 -14 4 -26 9 -35l-20 -13c-13 22 -27 37 -47 55c52 54 118 99 210 99
c84 0 124 -53 124 -135c0 -77 -10 -194 -10 -230c0 -40 10 -57 29 -57c12 0 30 11 38 21zM122 103c0 -39 26 -69 72 -69c48 0 116 37 118 100l4 101c-93 -21 -194 -67 -194 -132zM138 610c0 55 45 100 100 100s100 -45 100 -100s-45 -100 -100 -100s-100 45 -100 100z
M178 610c0 -33 27 -60 60 -60s60 27 60 60s-27 60 -60 60s-60 -27 -60 -60z" />
    <glyph glyph-name="atilde" unicode="&#xe3;" horiz-adv-x="500" 
d="M455 63l15 -19c-32 -33 -54 -60 -101 -60c-28 0 -48 16 -59 69c-46 -39 -93 -69 -172 -69c-56 0 -100 26 -100 88c0 92 95 166 278 195c0 109 -15 147 -92 147c-70 0 -102 -34 -102 -56c0 -14 4 -26 9 -35l-20 -13c-13 22 -27 37 -47 55c52 54 118 99 210 99
c84 0 124 -53 124 -135c0 -77 -10 -194 -10 -230c0 -40 10 -57 29 -57c12 0 30 11 38 21zM122 103c0 -39 26 -69 72 -69c48 0 116 37 118 100l4 101c-93 -21 -194 -67 -194 -132zM374 646h29c-11 -61 -44 -106 -110 -106c-26 0 -51 12 -74 23s-43 23 -61 23
c-27 0 -49 -20 -57 -46h-29c15 59 47 102 110 102c24 0 48 -12 71 -23s45 -23 65 -23c29 0 50 23 56 50z" />
    <glyph glyph-name="ccedilla" unicode="&#xe7;" horiz-adv-x="481" 
d="M444 116l19 -13c-53 -79 -128 -118 -213 -119l-19 -49c10 1 18 3 32 3c41 0 80 -22 80 -69c0 -61 -61 -87 -116 -87c-31 0 -64 5 -92 17l14 37c20 -6 41 -12 62 -12c35 0 58 12 58 38s-19 38 -46 38c-17 0 -28 -2 -36 -5l-7 6l36 86c-122 14 -178 111 -178 224
c0 138 124 253 250 253c56 0 117 -18 117 -62c0 -27 -17 -38 -40 -38c-43 0 -51 60 -107 60c-100 0 -158 -97 -158 -179c0 -115 94 -201 204 -201c57 0 106 28 140 72z" />
    <glyph glyph-name="eacute" unicode="&#xe9;" horiz-adv-x="500" 
d="M442 274h-331c-3 -13 -3 -27 -3 -39c0 -92 75 -181 180 -181c59 0 114 33 148 84l20 -13c-50 -94 -109 -141 -218 -141c-117 0 -200 105 -200 217c0 147 97 263 237 263c117 0 167 -86 167 -190zM116 304h242c0 60 -37 120 -106 120c-65 0 -115 -46 -136 -120zM218 514
h-39l146 146c18 18 31 26 48 26c19 0 32 -14 32 -32c0 -19 -11 -31 -29 -42z" />
    <glyph glyph-name="ecircumflex" unicode="&#xea;" horiz-adv-x="500" 
d="M442 274h-331c-3 -13 -3 -27 -3 -39c0 -92 75 -181 180 -181c59 0 114 33 148 84l20 -13c-50 -94 -109 -141 -218 -141c-117 0 -200 105 -200 217c0 147 97 263 237 263c117 0 167 -86 167 -190zM116 304h242c0 60 -37 120 -106 120c-65 0 -115 -46 -136 -120zM250 616
l-123 -102h-32l124 166h62l124 -166h-32z" />
    <glyph glyph-name="edieresis" unicode="&#xeb;" horiz-adv-x="500" 
d="M442 274h-331c-3 -13 -3 -27 -3 -39c0 -92 75 -181 180 -181c59 0 114 33 148 84l20 -13c-50 -94 -109 -141 -218 -141c-117 0 -200 105 -200 217c0 147 97 263 237 263c117 0 167 -86 167 -190zM116 304h242c0 60 -37 120 -106 120c-65 0 -115 -46 -136 -120zM395 602
c0 -36 -46 -64 -74 -64c-20 0 -36 15 -36 37c0 30 42 63 74 63c21 0 36 -20 36 -36zM227 602c0 -36 -46 -64 -74 -64c-20 0 -36 15 -36 37c0 30 42 63 74 63c21 0 36 -20 36 -36z" />
    <glyph glyph-name="egrave" unicode="&#xe8;" horiz-adv-x="500" 
d="M442 274h-331c-3 -13 -3 -27 -3 -39c0 -92 75 -181 180 -181c59 0 114 33 148 84l20 -13c-50 -94 -109 -141 -218 -141c-117 0 -200 105 -200 217c0 147 97 263 237 263c117 0 167 -86 167 -190zM116 304h242c0 60 -37 120 -106 120c-65 0 -115 -46 -136 -120zM321 514
h-39l-158 98c-18 11 -29 23 -29 42c0 18 13 32 32 32c17 0 30 -8 48 -26z" />
    <glyph glyph-name="iacute" unicode="&#xed;" horiz-adv-x="278" 
d="M46 -8v24c51 9 58 23 58 104v177c0 71 -15 95 -58 95v24c31 0 88 20 117 56h22c-3 -23 -5 -43 -5 -79v-273c0 -70 18 -104 80 -104v-24c-30 4 -57 8 -107 8s-77 -4 -107 -8zM107 514h-39l146 146c18 18 31 26 48 26c19 0 32 -14 32 -32c0 -19 -11 -31 -29 -42z" />
    <glyph glyph-name="icircumflex" unicode="&#xee;" horiz-adv-x="278" 
d="M46 -8v24c51 9 58 23 58 104v177c0 71 -15 95 -58 95v24c31 0 88 20 117 56h22c-3 -23 -5 -43 -5 -79v-273c0 -70 18 -104 80 -104v-24c-30 4 -57 8 -107 8s-77 -4 -107 -8zM139 616l-123 -102h-32l124 166h62l124 -166h-32z" />
    <glyph glyph-name="idieresis" unicode="&#xef;" horiz-adv-x="278" 
d="M46 -8v24c51 9 58 23 58 104v177c0 71 -15 95 -58 95v24c31 0 88 20 117 56h22c-3 -23 -5 -43 -5 -79v-273c0 -70 18 -104 80 -104v-24c-30 4 -57 8 -107 8s-77 -4 -107 -8zM284 602c0 -36 -46 -64 -74 -64c-20 0 -36 15 -36 37c0 30 42 63 74 63c21 0 36 -20 36 -36z
M116 602c0 -36 -46 -64 -74 -64c-20 0 -36 15 -36 37c0 30 42 63 74 63c21 0 36 -20 36 -36z" />
    <glyph glyph-name="igrave" unicode="&#xec;" horiz-adv-x="278" 
d="M46 -8v24c51 9 58 23 58 104v177c0 71 -15 95 -58 95v24c31 0 88 20 117 56h22c-3 -23 -5 -43 -5 -79v-273c0 -70 18 -104 80 -104v-24c-30 4 -57 8 -107 8s-77 -4 -107 -8zM210 514h-39l-158 98c-18 11 -29 23 -29 42c0 18 13 32 32 32c17 0 30 -8 48 -26z" />
    <glyph glyph-name="ntilde" unicode="&#xf1;" horiz-adv-x="574" 
d="M176 350v-230c0 -70 18 -94 76 -104v-24c-31 4 -59 8 -110 8s-79 -4 -110 -8v24c53 9 68 23 68 104v173c0 71 -15 95 -68 95v24c41 4 92 24 131 60h18c-3 -23 -5 -43 -5 -78c50 48 106 70 150 70c102 0 157 -77 157 -184v-160c0 -70 17 -96 75 -104v-24
c-32 4 -60 8 -113 8s-81 -4 -113 -8v24c60 9 75 23 75 104v145c0 93 -43 145 -119 145c-36 0 -74 -16 -112 -60zM417 646h29c-11 -61 -44 -106 -110 -106c-26 0 -51 12 -74 23s-43 23 -61 23c-27 0 -49 -20 -57 -46h-29c15 59 47 102 110 102c24 0 48 -12 71 -23
s45 -23 65 -23c29 0 50 23 56 50z" />
    <glyph glyph-name="oacute" unicode="&#xf3;" 
d="M518 224c0 -142 -98 -240 -240 -240s-240 98 -240 240s98 240 240 240s240 -98 240 -240zM434 188c0 140 -80 240 -177 240c-81 0 -135 -68 -135 -168c0 -140 80 -240 177 -240c81 0 135 68 135 168zM246 514h-39l146 146c18 18 31 26 48 26c19 0 32 -14 32 -32
c0 -19 -11 -31 -29 -42z" />
    <glyph glyph-name="ocircumflex" unicode="&#xf4;" 
d="M518 224c0 -142 -98 -240 -240 -240s-240 98 -240 240s98 240 240 240s240 -98 240 -240zM434 188c0 140 -80 240 -177 240c-81 0 -135 -68 -135 -168c0 -140 80 -240 177 -240c81 0 135 68 135 168zM278 616l-123 -102h-32l124 166h62l124 -166h-32z" />
    <glyph glyph-name="odieresis" unicode="&#xf6;" 
d="M518 224c0 -142 -98 -240 -240 -240s-240 98 -240 240s98 240 240 240s240 -98 240 -240zM434 188c0 140 -80 240 -177 240c-81 0 -135 -68 -135 -168c0 -140 80 -240 177 -240c81 0 135 68 135 168zM423 602c0 -36 -46 -64 -74 -64c-20 0 -36 15 -36 37
c0 30 42 63 74 63c21 0 36 -20 36 -36zM255 602c0 -36 -46 -64 -74 -64c-20 0 -36 15 -36 37c0 30 42 63 74 63c21 0 36 -20 36 -36z" />
    <glyph glyph-name="ograve" unicode="&#xf2;" 
d="M518 224c0 -142 -98 -240 -240 -240s-240 98 -240 240s98 240 240 240s240 -98 240 -240zM434 188c0 140 -80 240 -177 240c-81 0 -135 -68 -135 -168c0 -140 80 -240 177 -240c81 0 135 68 135 168zM349 514h-39l-158 98c-18 11 -29 23 -29 42c0 18 13 32 32 32
c17 0 30 -8 48 -26z" />
    <glyph glyph-name="otilde" unicode="&#xf5;" 
d="M518 224c0 -142 -98 -240 -240 -240s-240 98 -240 240s98 240 240 240s240 -98 240 -240zM434 188c0 140 -80 240 -177 240c-81 0 -135 -68 -135 -168c0 -140 80 -240 177 -240c81 0 135 68 135 168zM414 646h29c-11 -61 -44 -106 -110 -106c-26 0 -51 12 -74 23
s-43 23 -61 23c-27 0 -49 -20 -57 -46h-29c15 59 47 102 110 102c24 0 48 -12 71 -23s45 -23 65 -23c29 0 50 23 56 50z" />
    <glyph glyph-name="scaron" unicode="&#x161;" horiz-adv-x="407" 
d="M57 146l22 -4c-1 -7 -3 -14 -3 -21c0 -69 61 -101 124 -101c44 0 90 23 90 70c0 106 -233 119 -233 248c0 81 73 126 147 126c35 0 72 -12 92 -12c22 0 28 12 50 12c-10 -36 -8 -84 -14 -133h-20c0 72 -53 97 -113 97c-53 0 -78 -28 -78 -58c0 -90 239 -110 239 -243
c0 -99 -73 -143 -162 -143c-23 0 -49 4 -71 8s-40 8 -47 8c-19 0 -23 -10 -33 -12h-15c25 63 2 117 25 158zM81 680l123 -102l123 102h32l-124 -166h-62l-124 166h32z" />
    <glyph glyph-name="uacute" unicode="&#xfa;" horiz-adv-x="574" 
d="M552 38v-26c-32 0 -73 -10 -106 -28c-23 15 -31 30 -44 60c-41 -42 -100 -60 -158 -60c-110 0 -154 58 -154 158c0 60 6 145 6 201c0 49 -14 81 -61 81v24c83 0 112 4 128 16h19c-11 -45 -12 -84 -12 -140v-164c0 -87 42 -130 112 -130c44 0 91 20 114 51v201
c0 126 -20 142 -64 142v24c83 0 112 4 128 16h22c-6 -30 -10 -62 -10 -108v-216c0 -80 12 -102 80 -102zM249 514h-39l146 146c18 18 31 26 48 26c19 0 32 -14 32 -32c0 -19 -11 -31 -29 -42z" />
    <glyph glyph-name="ucircumflex" unicode="&#xfb;" horiz-adv-x="574" 
d="M552 38v-26c-32 0 -73 -10 -106 -28c-23 15 -31 30 -44 60c-41 -42 -100 -60 -158 -60c-110 0 -154 58 -154 158c0 60 6 145 6 201c0 49 -14 81 -61 81v24c83 0 112 4 128 16h19c-11 -45 -12 -84 -12 -140v-164c0 -87 42 -130 112 -130c44 0 91 20 114 51v201
c0 126 -20 142 -64 142v24c83 0 112 4 128 16h22c-6 -30 -10 -62 -10 -108v-216c0 -80 12 -102 80 -102zM281 616l-123 -102h-32l124 166h62l124 -166h-32z" />
    <glyph glyph-name="udieresis" unicode="&#xfc;" horiz-adv-x="574" 
d="M552 38v-26c-32 0 -73 -10 -106 -28c-23 15 -31 30 -44 60c-41 -42 -100 -60 -158 -60c-110 0 -154 58 -154 158c0 60 6 145 6 201c0 49 -14 81 -61 81v24c83 0 112 4 128 16h19c-11 -45 -12 -84 -12 -140v-164c0 -87 42 -130 112 -130c44 0 91 20 114 51v201
c0 126 -20 142 -64 142v24c83 0 112 4 128 16h22c-6 -30 -10 -62 -10 -108v-216c0 -80 12 -102 80 -102zM426 602c0 -36 -46 -64 -74 -64c-20 0 -36 15 -36 37c0 30 42 63 74 63c21 0 36 -20 36 -36zM258 602c0 -36 -46 -64 -74 -64c-20 0 -36 15 -36 37c0 30 42 63 74 63
c21 0 36 -20 36 -36z" />
    <glyph glyph-name="ugrave" unicode="&#xf9;" horiz-adv-x="574" 
d="M552 38v-26c-32 0 -73 -10 -106 -28c-23 15 -31 30 -44 60c-41 -42 -100 -60 -158 -60c-110 0 -154 58 -154 158c0 60 6 145 6 201c0 49 -14 81 -61 81v24c83 0 112 4 128 16h19c-11 -45 -12 -84 -12 -140v-164c0 -87 42 -130 112 -130c44 0 91 20 114 51v201
c0 126 -20 142 -64 142v24c83 0 112 4 128 16h22c-6 -30 -10 -62 -10 -108v-216c0 -80 12 -102 80 -102zM352 514h-39l-158 98c-18 11 -29 23 -29 42c0 18 13 32 32 32c17 0 30 -8 48 -26z" />
    <glyph glyph-name="yacute" unicode="&#xfd;" horiz-adv-x="481" 
d="M510 456v-24c-46 0 -76 -27 -128 -151c-158 -375 -256 -517 -348 -517c-30 0 -54 14 -54 40s15 46 38 46c30 0 34 -24 60 -24c30 0 78 46 139 166c-171 414 -173 440 -237 440v24c45 0 54 -8 107 -8s62 8 107 8v-24c-40 -4 -55 -12 -55 -44c0 -34 19 -58 120 -308h2
c103 228 119 258 119 293c0 43 -26 59 -68 59v24c41 0 50 -8 99 -8s58 8 99 8zM209 514h-39l146 146c18 18 31 26 48 26c19 0 32 -14 32 -32c0 -19 -11 -31 -29 -42z" />
    <glyph glyph-name="ydieresis" unicode="&#xff;" horiz-adv-x="481" 
d="M510 456v-24c-46 0 -76 -27 -128 -151c-158 -375 -256 -517 -348 -517c-30 0 -54 14 -54 40s15 46 38 46c30 0 34 -24 60 -24c30 0 78 46 139 166c-171 414 -173 440 -237 440v24c45 0 54 -8 107 -8s62 8 107 8v-24c-40 -4 -55 -12 -55 -44c0 -34 19 -58 120 -308h2
c103 228 119 258 119 293c0 43 -26 59 -68 59v24c41 0 50 -8 99 -8s58 8 99 8zM386 602c0 -36 -46 -64 -74 -64c-20 0 -36 15 -36 37c0 30 42 63 74 63c21 0 36 -20 36 -36zM218 602c0 -36 -46 -64 -74 -64c-20 0 -36 15 -36 37c0 30 42 63 74 63c21 0 36 -20 36 -36z" />
    <glyph glyph-name="zcaron" unicode="&#x17e;" horiz-adv-x="481" 
d="M442 135h24c1 -57 -42 -103 -46 -157c-28 11 -46 17 -81 19c-35 3 -85 3 -178 3c-63 0 -97 -2 -116 -5c-18 -2 -22 -5 -25 -5l-4 16c40 26 87 89 122 142l180 272h-119c-101 0 -135 -24 -141 -97h-21c-2 15 -3 28 -3 40c1 25 5 46 6 67c0 14 -3 29 -6 45
c50 -21 64 -27 188 -27c184 0 207 10 224 16l5 -16c-31 -20 -60 -53 -90 -98l-217 -322h155c75 2 129 31 143 107zM118 680l123 -102l123 102h32l-124 -166h-62l-124 166h32z" />
    <glyph glyph-name="Delta" unicode="&#x2206;" horiz-adv-x="631" 
d="M595 0h-560v23l258 678l36 11l266 -689v-23zM496 45l-207 545l-203 -545h410z" />
    <glyph glyph-name="Omega" unicode="&#x2126;" horiz-adv-x="727" 
d="M693 140l-25 -140h-233l-6 18c44 84 134 218 133 368c-1 218 -100 296 -199 296c-109 0 -198 -80 -198 -301c0 -145 76 -267 131 -362l-8 -19h-231l-23 140l23 1c22 -67 38 -78 77 -78h107c-62 57 -168 160 -168 325c0 198 128 324 292 324c166 0 288 -118 288 -316
c0 -147 -98 -258 -171 -333h111c42 0 53 8 75 78z" />
    <glyph glyph-name="pi" unicode="&#x3c0;" horiz-adv-x="562" 
d="M510 480l24 -9c-8 -38 -23 -68 -35 -85c-16 -4 -41 -4 -70 -4c-5 -62 -4 -174 -4 -245c0 -61 12 -94 45 -94c21 0 33 11 51 32l13 -20c-26 -47 -65 -67 -101 -67c-50 0 -86 27 -86 129c0 93 5 185 10 267c-59 1 -120 2 -162 2v-20c0 -233 -51 -343 -66 -361
c-16 -7 -42 -16 -58 -17l-6 16c75 93 94 278 94 383c-68 1 -94 -20 -130 -47l-14 21c29 34 67 89 168 89c74 -1 170 -4 267 -4c31 0 44 5 60 34z" />
    <glyph glyph-name="Euro" unicode="&#x20ac;" 
d="M512 572h-20c-10 69 -63 100 -135 100c-122 0 -166 -97 -180 -254h281l-15 -36h-268v-32v-35h241l-15 -36h-224c10 -165 72 -256 180 -256c63 0 123 27 135 102h20l-6 -79c-27 -34 -73 -61 -166 -61c-155 0 -235 101 -250 294h-70l15 36h50v36c0 8 0 22 1 31h-66l15 36
h53c19 187 84 294 252 294c99 0 144 -32 166 -59z" />
    <glyph glyph-name="estimated" unicode="&#x212e;" horiz-adv-x="876" 
d="M841 337h-653c-4 0 -6 -1 -6 -4v-198c0 -8 4 -16 9 -22c63 -66 150 -108 247 -108c105 0 197 47 260 120h59c-73 -85 -190 -140 -320 -140c-222 0 -403 162 -403 362c0 201 181 363 403 363c224 0 404 -162 404 -363v-10zM693 363v199c0 9 -3 17 -10 24
c-63 62 -149 103 -245 103c-95 0 -183 -42 -246 -107c-6 -6 -10 -15 -10 -24v-195c0 -2 2 -6 6 -6h501c3 0 4 4 4 6z" />
    <glyph glyph-name="partialdiff" unicode="&#x2202;" horiz-adv-x="527" 
d="M262 434h1c46 0 103 -22 137 -72c3 33 7 68 8 107c1 52 -6 109 -27 163c-20 48 -71 102 -135 102c-53 0 -100 -26 -136 -56c-16 -2 -37 36 -28 59c34 22 81 42 139 42c95 0 158 -54 204 -144c40 -78 49 -175 49 -236c0 -75 -12 -180 -47 -257
c-42 -92 -107 -156 -202 -156c-109 0 -181 77 -181 204c0 70 26 130 58 168c36 44 97 76 160 76zM282 396h-1c-43 0 -80 -16 -112 -60c-31 -48 -45 -117 -45 -185c-1 -73 37 -135 100 -135c57 0 96 55 119 107c28 62 39 115 50 197c-13 28 -56 76 -111 76z" />
    <glyph glyph-name="product" unicode="&#x220f;" horiz-adv-x="680" 
d="M651 703v-25c-87 -7 -91 -13 -91 -67v-597c0 -63 7 -71 89 -77v-25h-252v25c79 5 85 9 85 77v624c0 29 -6 33 -36 33h-216c-28 0 -33 -3 -33 -29v-628c0 -62 0 -70 77 -77v-25h-244v25c80 6 88 12 88 77v597c0 55 -5 60 -91 67v25h624z" />
    <glyph glyph-name="summation" unicode="&#x2211;" horiz-adv-x="551" 
d="M527 93l-43 -184h-455v23l226 356l-221 392v23h450c1 -19 8 -96 12 -160l-25 -5c-9 48 -20 81 -33 102c-13 24 -28 31 -104 31h-200l191 -331l-225 -361h262c86 0 98 5 139 121z" />
    <glyph glyph-name="uni2219" unicode="&#x2219;" horiz-adv-x="278" 
d="M79 224c0 33 27 60 60 60s60 -27 60 -60s-27 -60 -60 -60s-60 27 -60 60z" />
    <glyph glyph-name="radical" unicode="&#x221a;" horiz-adv-x="549" 
d="M530 902l-164 -1049l-20 -11l-218 559l-87 -42l-11 32l151 71l172 -454h2l138 904z" />
    <glyph glyph-name="infinity" unicode="&#x221e;" horiz-adv-x="756" 
d="M707 292v-1c0 -98 -73 -158 -150 -158c-61 0 -111 35 -178 114c-51 -59 -104 -114 -183 -114c-80 0 -148 65 -148 154c0 91 66 157 155 157c73 0 128 -53 179 -115c48 54 98 115 181 115c85 0 144 -62 144 -152zM202 183h1c61 0 108 59 147 102c-42 53 -85 110 -153 110
c-61 0 -96 -50 -96 -109c0 -57 42 -103 101 -103zM557 395h-1c-63 0 -114 -70 -147 -105c63 -73 99 -107 151 -107c60 0 94 54 94 104c0 67 -41 108 -97 108z" />
    <glyph glyph-name="integral" unicode="&#x222b;" horiz-adv-x="370" 
d="M161 18l-19 420c-16 345 64 419 149 419c24 0 57 -14 58 -44c0 -27 -20 -41 -42 -41c-31 0 -28 43 -51 43c-22 0 -51 -32 -45 -172l18 -392c18 -369 -63 -448 -149 -448c-35 0 -58 21 -58 46c-1 25 21 44 48 44s27 -47 48 -47c32 0 49 69 43 172z" />
    <glyph glyph-name="approxequal" unicode="&#x2248;" horiz-adv-x="541" 
d="M464 433l34 -30c-27 -52 -68 -95 -127 -95c-39 0 -67 15 -112 40c-29 18 -56 33 -88 33c-44 0 -71 -33 -95 -72l-35 29c29 57 79 95 136 95c47 0 81 -25 107 -39c34 -19 56 -34 89 -34c38 0 64 26 91 73zM464 264l34 -29c-27 -53 -68 -95 -127 -95c-40 0 -67 15 -112 40
c-30 18 -57 33 -88 33c-45 0 -71 -35 -95 -72l-35 29c29 57 79 94 136 94c48 0 81 -24 107 -38c31 -17 55 -34 89 -34c39 0 63 26 91 72z" />
    <glyph glyph-name="notequal" unicode="&#x2260;" horiz-adv-x="541" 
d="M387 500l-42 -93h146v-53h-167l-63 -139h230v-53h-251l-51 -113l-42 19l43 94h-141v53h162l63 139h-225v53h246l50 112z" />
    <glyph glyph-name="lessequal" unicode="&#x2264;" horiz-adv-x="541" 
d="M489 102l-435 220v56l435 219v-62l-379 -183v-3l379 -184v-63zM492 8h-443v54h443v-54z" />
    <glyph glyph-name="greaterequal" unicode="&#x2265;" horiz-adv-x="541" 
d="M55 597l435 -219v-56l-435 -220v62l379 185v2l-379 184v62zM491 8h-441v54h441v-54z" />
    <glyph glyph-name="lozenge" unicode="&#x25ca;" 
d="M506 339l-197 -409h-62l-198 409l199 412h61zM447 339l-167 353h-3l-168 -351l168 -354h3z" />
    <glyph glyph-name="uni02C9" unicode="&#x2c9;" horiz-adv-x="278" 
d="M294 557h-310v52h310v-52z" />
    <glyph glyph-name="uni00AD" unicode="&#xad;" horiz-adv-x="333" 
d="M42 189v70h249v-70h-249z" />
    <glyph glyph-name="uni03A9" unicode="&#x3a9;" horiz-adv-x="727" 
d="M693 140l-25 -140h-233l-6 18c44 84 134 218 133 368c-1 218 -100 296 -199 296c-109 0 -198 -80 -198 -301c0 -145 76 -267 131 -362l-8 -19h-231l-23 140l23 1c22 -67 38 -78 77 -78h107c-62 57 -168 160 -168 325c0 198 128 324 292 324c166 0 288 -118 288 -316
c0 -147 -98 -258 -171 -333h111c42 0 53 8 75 78z" />
    <glyph glyph-name="uni00A0" unicode="&#xa0;" horiz-adv-x="278" 
 />
    <glyph glyph-name="afii61289" unicode="&#x2113;" horiz-adv-x="405" 
d="M369 112l18 -17c-37 -71 -91 -109 -162 -109c-46 0 -78 14 -99 40c-23 29 -33 64 -33 146v87l-61 -46l-12 23l72 59v129c0 170 9 224 52 275c25 31 52 46 83 46c59 0 88 -62 88 -134c0 -121 -65 -217 -147 -302v-97c0 -136 34 -173 91 -173c47 0 82 32 110 73zM168 485
v-131c57 69 99 166 99 256c0 60 -16 105 -48 105c-38 0 -51 -62 -51 -230z" />
    <glyph glyph-name="uni03BC" unicode="&#x3bc;" horiz-adv-x="574" 
d="M552 38v-26c-32 0 -73 -10 -106 -28c-23 15 -31 30 -44 60c-41 -42 -100 -60 -158 -60c-29 0 -54 4 -74 10v-122c0 -46 4 -78 10 -108h-145v24c47 0 59 30 59 81v474c0 51 -12 81 -59 81v24c83 0 112 4 128 16h19c-11 -45 -12 -84 -12 -140v-164c0 -87 42 -130 112 -130
c44 0 91 20 114 51v201c0 126 -20 142 -64 142v24c83 0 112 4 128 16h22c-6 -30 -10 -62 -10 -108v-216c0 -80 12 -102 80 -102z" />
    <glyph glyph-name="uni2215" unicode="&#x2215;" horiz-adv-x="167" 
d="M-167 -16l443 728h58l-443 -728h-58z" />
    </font>
</defs>
</svg>
