<?xml version="1.0" standalone="no"?>
<!DOCTYPE svg PUBLIC "-//W3C//DTD SVG 1.1//EN" "http://www.w3.org/Graphics/SVG/1.1/DTD/svg11.dtd" >
<svg xmlns="http://www.w3.org/2000/svg" xmlns:xlink="http://www.w3.org/1999/xlink" version="1.1">
<metadata>
Created by FontForge 20170910 at Fri May 12 15:01:29 2006
 By Jimmy Wärting
Copyright 1989, 1990, 1995 , 2002Adobe Systems Incorporated. All Rights Reserved. 
</metadata>
<defs>
<font id="MinisterStd-Book" horiz-adv-x="593" >
  <font-face 
    font-family="Minister Std"
    font-weight="400"
    font-stretch="normal"
    units-per-em="1000"
    panose-1="0 0 5 0 0 0 0 0 0 0"
    ascent="796"
    descent="-204"
    x-height="464"
    cap-height="722"
    bbox="-167 -262 1127 976"
    underline-thickness="50"
    underline-position="-100"
    stemh="44"
    stemv="104"
    unicode-range="U+0020-FB02"
  />
<missing-glyph horiz-adv-x="500" 
d="M0 0v700h500v-700h-500zM250 395l170 255h-340zM280 350l170 -255v510zM80 50h340l-170 255zM50 605v-510l170 255z" />
    <glyph glyph-name="fi" unicode="fi" horiz-adv-x="630" 
d="M112 456v48c0 182 106 292 254 292c94 0 134 -36 134 -71c0 -33 -16 -51 -60 -51c-50 0 -86 68 -126 68c-70 0 -98 -70 -98 -186v-100h210c32 0 64 6 86 18h32c-8 -28 -8 -58 -8 -122v-240c0 -68 28 -82 78 -84v-36c-42 2 -82 8 -123 8c-40 0 -80 -6 -124 -8v36
c31 4 65 16 65 84v166c0 102 -6 130 -66 130h-150v-268c0 -92 31 -106 91 -112v-36c-24 2 -56 8 -152 8c-40 0 -80 -6 -116 -8v36c32 4 73 20 73 112v268h-82v48h82z" />
    <glyph glyph-name="fl" unicode="fl" horiz-adv-x="630" 
d="M34 -8v36c40 0 73 20 73 112v268h-77v48h77v32c0 182 99 308 251 308c55 0 96 -9 142 -36l29 36h37c-21 -50 -35 -118 -35 -200v-484c0 -68 28 -82 77 -84v-36c-41 2 -81 8 -122 8c-40 0 -80 -6 -120 -8v36c43 2 61 16 61 84v483c0 58 -6 153 -87 153
c-77 0 -129 -72 -129 -186v-106h110v-48h-110v-268c0 -92 46 -112 85 -112v-36c-51 2 -91 8 -132 8c-40 0 -80 -6 -130 -8z" />
    <glyph glyph-name=".notdef" horiz-adv-x="500" 
d="M0 0v700h500v-700h-500zM250 395l170 255h-340zM280 350l170 -255v510zM80 50h340l-170 255zM50 605v-510l170 255z" />
    <glyph glyph-name="space" unicode=" " horiz-adv-x="296" 
 />
    <glyph glyph-name="exclam" unicode="!" horiz-adv-x="315" 
d="M158 130c40 0 60 -34 60 -74s-20 -74 -60 -74s-60 34 -60 74s20 74 60 74zM176 194h-36c-6 260 -34 406 -62 446c8 26 56 94 79 94s71 -68 79 -94c-28 -40 -56 -186 -60 -446z" />
    <glyph glyph-name="quotedbl" unicode="&#x22;" horiz-adv-x="333" 
d="M44 679c0 25 8 55 41 55s41 -30 41 -55c0 -41 -9 -134 -19 -230c-2 -20 -11 -31 -22 -31s-20 11 -22 31c-10 96 -19 189 -19 230zM207 679c0 25 8 55 41 55s41 -30 41 -55c0 -41 -9 -134 -19 -230c-2 -20 -11 -31 -22 -31s-20 11 -22 31c-10 96 -19 189 -19 230z" />
    <glyph glyph-name="numbersign" unicode="#" 
d="M518 279v-66h-101l-31 -213h-73l30 213h-121l-31 -213h-73l30 213h-102v66h112l20 138h-102v66h111l30 213h74l-30 -213h121l30 213h74l-31 -213h92v-66h-101l-20 -138h92zM373 417h-122l-20 -138h121z" />
    <glyph glyph-name="dollar" unicode="$" 
d="M138 212l29 -21c-13 -17 -21 -36 -21 -57c0 -36 56 -86 125 -86h12v252c-88 32 -198 95 -198 200c0 114 93 194 198 194v77h40v-77c90 0 133 -62 163 -62c6 0 11 2 16 3l19 -23c-30 -27 -56 -59 -80 -91l-27 15c5 9 7 19 7 30c0 44 -35 82 -98 84v-241
c105 -49 206 -98 206 -225c0 -107 -118 -176 -206 -184v-85h-40v85c-122 0 -161 82 -230 82l-19 22c36 34 73 69 104 108zM323 288v-240c48 0 116 43 116 99c0 75 -59 112 -116 141zM283 425v225c-57 -2 -116 -34 -116 -101c0 -73 60 -101 116 -124z" />
    <glyph glyph-name="percent" unicode="%" horiz-adv-x="796" 
d="M596 344c-45 0 -78 -34 -78 -158s33 -158 78 -158s78 34 78 158s-33 158 -78 158zM654 712l-443 -728h-63l443 728h63zM200 668c-45 0 -78 -34 -78 -158s33 -158 78 -158s78 34 78 158s-33 158 -78 158zM596 388c91 0 160 -76 160 -202s-69 -202 -160 -202
s-160 76 -160 202s69 202 160 202zM200 712c91 0 160 -76 160 -202s-69 -202 -160 -202s-160 76 -160 202s69 202 160 202z" />
    <glyph glyph-name="ampersand" unicode="&#x26;" horiz-adv-x="852" 
d="M810 452v-36c-132 -13 -80 -130 -217 -271c24 -40 63 -87 114 -87c35 0 65 30 82 54l27 -16c-36 -62 -81 -118 -158 -118c-62 0 -114 46 -146 95c-70 -55 -154 -95 -240 -95c-134 0 -216 68 -216 182c0 140 94 194 194 236c-30 34 -48 75 -48 120c0 88 86 158 171 158
c62 0 135 -34 135 -104c0 -38 -22 -74 -66 -74c-30 0 -48 14 -50 52c6 -2 11 -4 17 -4c12 0 23 8 23 30c0 32 -32 58 -62 58c-51 0 -92 -40 -92 -92c0 -90 198 -170 295 -362c41 40 75 96 75 155c0 51 -28 77 -99 77v42c44 0 91 -8 135 -8c58 0 94 8 126 8zM335 48
c51 0 116 25 155 58c-59 98 -142 178 -218 262c-78 -40 -122 -80 -122 -158c0 -108 86 -162 185 -162z" />
    <glyph glyph-name="quoteright" unicode="&#x2019;" horiz-adv-x="241" 
d="M71 472v36c35 6 59 44 59 85c0 6 -1 11 -4 17c-4 -4 -13 -6 -19 -6c-26 0 -43 33 -43 63c0 28 22 67 54 67c59 0 70 -58 70 -96c0 -70 -45 -149 -117 -166z" />
    <glyph glyph-name="parenleft" unicode="(" horiz-adv-x="407" 
d="M282 752h41c-91 -148 -135 -304 -135 -492s44 -344 135 -492h-41c-124 140 -198 304 -198 492s74 352 198 492z" />
    <glyph glyph-name="parenright" unicode=")" horiz-adv-x="407" 
d="M125 -232h-41c91 148 135 304 135 492s-44 344 -135 492h41c124 -140 198 -304 198 -492s-74 -352 -198 -492z" />
    <glyph glyph-name="asterisk" unicode="*" 
d="M82 622l5 23l95 7l39 -20c0 -26 6 -44 35 -44c17 0 33 18 33 34c0 23 -13 35 -35 35v41l32 98h21l32 -98v-41c-22 0 -36 -12 -36 -35c0 -16 17 -34 34 -34c29 0 35 18 35 44l39 20l95 -7l5 -23l-66 -57l-43 -9c-4 13 -19 24 -33 24c-21 0 -35 -15 -35 -36s18 -36 39 -36
c7 0 12 1 17 4l22 -34l23 -88l-18 -14l-75 54l-21 34c7 5 14 17 14 30c0 20 -17 35 -37 35c-23 0 -40 -15 -40 -35c0 -13 7 -25 14 -30l-21 -34l-75 -54l-18 14l23 88l22 34c5 -3 10 -4 17 -4c21 0 39 15 39 36s-14 36 -35 36c-14 0 -29 -11 -33 -24l-43 9z" />
    <glyph glyph-name="plus" unicode="+" horiz-adv-x="600" 
d="M262 266v190h76v-190h190v-76h-190v-190h-76v190h-190v76h190z" />
    <glyph glyph-name="comma" unicode="," horiz-adv-x="296" 
d="M84 -154v36c38 7 66 65 66 99c0 4 -1 9 -1 14c-3 -1 -6 -3 -9 -4c-2 0 -5 -1 -9 -1c-33 0 -49 29 -49 59c0 35 17 81 59 81c55 0 67 -58 67 -102c0 -72 -46 -168 -124 -182z" />
    <glyph glyph-name="hyphen" unicode="-" horiz-adv-x="352" 
d="M42 179v98h268v-98h-268z" />
    <glyph glyph-name="period" unicode="." horiz-adv-x="296" 
d="M148 130c40 0 60 -34 60 -74s-20 -74 -60 -74s-60 34 -60 74s20 74 60 74z" />
    <glyph glyph-name="slash" unicode="/" horiz-adv-x="315" 
d="M337 734l-283 -756h-76l283 756h76z" />
    <glyph glyph-name="zero" unicode="0" 
d="M162 348c0 -244 58 -320 134 -320s134 76 134 320s-58 320 -134 320s-134 -76 -134 -320zM42 348c0 214 106 364 254 364s254 -150 254 -364s-106 -364 -254 -364s-254 150 -254 364z" />
    <glyph glyph-name="one" unicode="1" 
d="M126 583v41c70 14 174 48 231 98h33c-10 -42 -19 -116 -19 -199v-295c0 -178 29 -198 128 -198v-40c-60 4 -120 10 -180 10c-50 0 -124 -6 -175 -10v40c100 0 123 32 123 144v337c0 63 -9 89 -42 89c-29 0 -83 -12 -99 -17z" />
    <glyph glyph-name="two" unicode="2" 
d="M190 96h242c32 0 59 32 74 56l30 -12c-16 -59 -64 -107 -74 -168c-19 15 -50 28 -96 28h-220c-50 0 -84 -10 -114 -22h-2l-9 32c293 230 371 314 371 456c0 90 -66 182 -158 182c-74 0 -128 -46 -128 -100c0 -17 5 -32 21 -40c-5 -18 -23 -28 -41 -28
c-28 0 -52 28 -52 61c0 99 114 171 226 171c146 0 252 -86 252 -217c0 -189 -193 -300 -324 -397z" />
    <glyph glyph-name="three" unicode="3" 
d="M193 355l-5 43c81 3 184 40 184 138c0 74 -56 120 -127 120c-59 0 -111 -48 -111 -96c0 -12 8 -25 18 -30c-6 -13 -24 -22 -38 -22c-28 0 -52 21 -52 50c0 84 92 154 222 154c132 0 200 -70 200 -154c0 -95 -64 -144 -158 -160v-2c99 0 200 -58 200 -184
c0 -128 -122 -228 -292 -228c-130 0 -194 48 -194 114c0 30 18 56 50 56c14 0 25 -7 32 -12c-7 -10 -10 -22 -10 -33c0 -27 38 -75 122 -75c88 0 172 59 172 149c0 116 -61 177 -179 177c-11 0 -23 -3 -34 -5z" />
    <glyph glyph-name="four" unicode="4" 
d="M532 269v-120c-12 19 -46 21 -76 21v-50c0 -56 6 -82 36 -116l-5 -14c-15 8 -35 10 -82 10s-67 -2 -82 -10l-7 14c31 34 36 60 36 116v50h-238c-50 0 -76 -7 -90 -9v14c0 30 17 47 43 83l204 276c43 59 89 116 125 178h76c-5 -40 -16 -81 -16 -122v-344c30 0 64 4 76 23z
M119 246h233v320h-4z" />
    <glyph glyph-name="five" unicode="5" 
d="M104 720h42c10 -9 20 -15 39 -19c18 -4 44 -5 86 -5c90 0 165 12 207 46c-4 -106 -82 -142 -194 -142c-46 0 -90 0 -124 16v-182c34 23 88 46 146 46c128 0 226 -104 226 -224c0 -176 -152 -272 -314 -272c-116 0 -176 56 -176 110c0 34 23 62 61 62c9 0 15 -2 21 -12
c-6 -10 -10 -20 -10 -35c0 -51 48 -81 111 -81c113 0 187 100 187 210c0 102 -64 170 -148 170c-58 0 -100 -26 -128 -64l-32 21c9 28 12 84 12 181c0 119 -4 132 -12 174z" />
    <glyph glyph-name="six" unicode="6" 
d="M448 168c0 104 -53 226 -156 226c-60 0 -126 -48 -126 -141c0 -99 55 -221 159 -221c83 0 123 60 123 136zM552 214c0 -130 -94 -230 -252 -230c-174 0 -254 162 -254 313c0 237 188 415 350 415c62 0 106 -24 106 -65c0 -25 -19 -45 -42 -45c-7 0 -10 6 -10 14
c0 30 -36 44 -63 44c-135 0 -233 -166 -233 -286h2c37 48 100 82 173 82c111 0 223 -84 223 -242z" />
    <glyph glyph-name="seven" unicode="7" 
d="M564 712l23 -27c-26 -19 -64 -92 -78 -117l-316 -590h-64l302 622h-220c-68 0 -103 -16 -103 -94h-36c-2 14 -4 30 -4 44c0 34 4 70 4 98s-6 50 -10 74c16 0 40 -6 69 -13c28 -6 61 -13 94 -13h227c53 0 78 6 112 16z" />
    <glyph glyph-name="eight" unicode="8" 
d="M70 517c0 127 114 195 228 195c122 0 212 -61 212 -174c0 -80 -59 -122 -117 -141c86 -36 157 -93 157 -194c0 -142 -134 -219 -260 -219c-112 0 -246 55 -246 192c0 70 50 150 148 180v1c-66 34 -122 78 -122 160zM164 561c0 -90 127 -122 194 -147c53 26 80 69 80 114
c0 100 -58 140 -150 140c-76 0 -124 -46 -124 -107zM446 154c0 121 -129 144 -218 182c-54 -28 -112 -79 -112 -157c0 -95 77 -151 168 -151c84 0 162 43 162 126z" />
    <glyph glyph-name="nine" unicode="9" 
d="M431 443c0 89 -59 221 -163 221c-92 0 -127 -80 -127 -152c0 -104 53 -218 156 -218c91 0 134 64 134 149zM545 399c0 -245 -157 -415 -341 -415c-76 0 -117 26 -117 65c0 25 23 45 46 45c7 0 10 -6 10 -14c0 -28 36 -44 79 -44c119 0 208 140 208 272h-2
c-28 -42 -103 -76 -176 -76c-116 0 -215 96 -215 227c0 151 99 253 247 253c176 0 261 -164 261 -313z" />
    <glyph glyph-name="colon" unicode=":" horiz-adv-x="296" 
d="M148 130c40 0 60 -34 60 -74s-20 -74 -60 -74s-60 34 -60 74s20 74 60 74zM148 458c40 0 60 -34 60 -74s-20 -74 -60 -74s-60 34 -60 74s20 74 60 74z" />
    <glyph glyph-name="semicolon" unicode=";" horiz-adv-x="296" 
d="M84 -154v36c38 7 66 65 66 99c0 4 -1 9 -1 14c-3 -1 -6 -3 -9 -4c-2 0 -5 -1 -9 -1c-33 0 -49 29 -49 59c0 35 17 81 59 81c55 0 67 -58 67 -102c0 -72 -46 -168 -124 -182zM148 458c40 0 60 -34 60 -74s-20 -74 -60 -74s-60 34 -60 74s20 74 60 74z" />
    <glyph glyph-name="less" unicode="&#x3c;" horiz-adv-x="600" 
d="M528 67v-75l-456 204v64l456 204v-75l-361 -161z" />
    <glyph glyph-name="equal" unicode="=" horiz-adv-x="600" 
d="M528 358v-76h-456v76h456zM528 174v-76h-456v76h456z" />
    <glyph glyph-name="greater" unicode="&#x3e;" horiz-adv-x="600" 
d="M72 -8v75l361 161l-361 161v75l456 -204v-64z" />
    <glyph glyph-name="question" unicode="?" horiz-adv-x="407" 
d="M219 200l-41 -9c-14 46 -94 141 -94 182c0 76 222 88 222 206c0 57 -48 103 -105 103c-31 0 -67 -15 -67 -51c0 -8 2 -16 5 -23c-4 -6 -18 -10 -31 -10c-28 0 -50 22 -50 50c0 69 69 86 125 86c111 0 183 -97 183 -200c0 -147 -190 -166 -190 -225c0 -26 27 -87 43 -109z
M194 130c40 0 60 -34 60 -74s-20 -74 -60 -74s-60 34 -60 74s20 74 60 74z" />
    <glyph glyph-name="at" unicode="@" horiz-adv-x="800" 
d="M331 295c0 -62 28 -90 61 -90c56 0 126 113 126 223c0 46 -14 70 -46 70c-51 0 -141 -79 -141 -203zM537 497l12 42h77l-63 -258c-4 -17 -8 -31 -8 -40c0 -22 8 -49 39 -49c77 0 130 125 130 218c0 124 -111 276 -303 276c-152 0 -297 -115 -297 -358
c0 -157 132 -294 307 -294c97 0 154 21 217 51l13 -42c-69 -35 -143 -65 -229 -65c-286 0 -412 214 -412 361c0 236 184 395 401 395c202 0 359 -138 359 -323c0 -111 -72 -261 -203 -261c-73 0 -99 64 -98 79h-2c-11 -19 -62 -79 -126 -79c-34 0 -106 19 -106 136
c0 84 69 268 216 268c51 0 62 -31 76 -57z" />
    <glyph glyph-name="A" unicode="A" horiz-adv-x="759" 
d="M466 338l-106 286l-117 -286c36 -2 71 -4 107 -4c39 0 77 2 116 4zM-24 -10v42c55 0 99 54 128 122c12 27 214 458 214 496c0 20 -12 30 -36 30v42c124 0 113 36 192 36c-8 -14 -12 -32 -12 -48c0 -26 6 -54 18 -86l191 -493c29 -76 69 -99 112 -99v-42
c-58 3 -51 10 -160 10c-110 0 -103 -7 -161 -10v42c69 0 89 24 89 59c0 45 -13 55 -66 189c-39 4 -107 6 -172 6c-53 0 -74 -4 -93 -6c-46 -116 -66 -138 -66 -183c0 -31 31 -65 96 -65v-42c-49 3 -44 10 -137 10s-88 -7 -137 -10z" />
    <glyph glyph-name="B" unicode="B" horiz-adv-x="741" 
d="M260 359v-201c0 -98 37 -120 123 -120c134 0 179 82 179 150c0 108 -82 176 -218 177c-37 0 -60 -4 -84 -6zM140 160v392c0 100 -21 122 -90 128v42c42 0 66 -10 110 -10c58 0 106 10 232 10c168 0 257 -70 257 -166c0 -74 -60 -143 -163 -158v-2
c104 -9 206 -78 206 -188c0 -94 -68 -218 -300 -218c-65 0 -114 10 -198 10c-78 0 -109 -6 -144 -10v42c69 6 90 28 90 128zM260 661v-244c21 -2 41 -4 70 -4c140 -1 189 41 189 124c0 91 -59 137 -173 137c-31 0 -62 -7 -86 -13z" />
    <glyph glyph-name="C" unicode="C" horiz-adv-x="833" 
d="M710 502h-36c0 154 -96 184 -214 184c-177 0 -294 -134 -294 -330s122 -330 302 -330c128 0 214 48 256 144h36c-10 -58 -50 -124 -50 -192c-12 8 -24 14 -36 17c-11 4 -23 5 -34 5c-26 0 -49 -5 -81 -11c-31 -5 -70 -11 -129 -11c-260 0 -394 160 -394 364
c0 218 162 392 400 392c77 0 125 -9 161 -19c35 -9 57 -19 80 -19c29 0 47 6 65 16c-14 -56 -24 -118 -32 -210z" />
    <glyph glyph-name="D" unicode="D" horiz-adv-x="889" 
d="M258 663v-488c0 -113 44 -137 142 -137c193 0 319 136 319 310c0 192 -130 326 -347 326c-50 0 -77 -7 -114 -11zM138 160v392c0 100 -21 122 -88 128v42c48 0 90 -10 149 -10c71 0 133 10 243 10c254 0 407 -142 407 -364c0 -202 -180 -368 -435 -368
c-104 0 -144 10 -220 10c-92 0 -108 -6 -144 -10v42c67 6 88 28 88 128z" />
    <glyph glyph-name="E" unicode="E" horiz-adv-x="722" 
d="M140 160v392c0 100 -21 122 -90 128v42h2c45 0 84 -2 136 -5c52 -2 117 -5 216 -5c148 0 190 0 246 22c-9 -32 -3 -142 -12 -171h-30c0 77 -42 101 -212 101c-56 0 -100 -4 -136 -8v-266c47 -2 78 -4 116 -4c126 0 156 30 158 92h36c-4 -30 -8 -62 -8 -116s4 -86 8 -116
h-36c-2 62 -32 92 -158 92c-38 0 -69 -2 -116 -4v-176c0 -98 36 -110 132 -110c152 0 254 36 254 141h36c0 -79 -22 -97 -22 -211c-26 11 -43 17 -94 19c-50 3 -134 3 -292 3c-97 0 -150 -2 -181 -5c-30 -2 -37 -5 -41 -5h-2v42c69 6 90 28 90 128z" />
    <glyph glyph-name="F" unicode="F" horiz-adv-x="685" 
d="M140 160v392c0 100 -21 122 -90 128v42h2c18 0 37 -2 83 -5c45 -2 117 -5 241 -5c118 0 229 0 274 22c-9 -32 -3 -142 -12 -171h-30c0 77 -42 101 -212 101c-56 0 -100 -4 -136 -8v-266c47 -2 78 -4 122 -4c126 0 156 30 158 92h36c-4 -30 -8 -62 -8 -116s4 -86 8 -116
h-36c-2 62 -32 92 -158 92c-44 0 -75 -2 -122 -4v-174c0 -100 20 -128 126 -128v-42c-52 4 -94 10 -198 10c-54 0 -102 -6 -138 -10v42c69 6 90 28 90 128z" />
    <glyph glyph-name="G" unicode="G" horiz-adv-x="889" 
d="M746 512h-36c0 133 -114 174 -226 174c-182 0 -308 -128 -308 -348c0 -182 116 -312 290 -312c128 0 200 48 200 154c0 77 -36 94 -101 96v36c51 -2 101 -8 152 -8c45 0 89 6 134 8v-36c-68 -2 -87 -53 -87 -114c0 -68 12 -82 54 -86v-26c-76 0 -116 -15 -171 -36
c-56 -21 -99 -36 -183 -36c-294 0 -418 166 -418 350c0 234 180 406 418 406c160 0 187 -36 234 -36c23 0 47 6 74 14c-24 -33 -20 -161 -26 -200z" />
    <glyph glyph-name="H" unicode="H" horiz-adv-x="907" 
d="M260 552v-154c45 -2 107 -4 193 -4s148 2 193 4v154c0 100 -21 122 -90 128v42c30 0 106 -10 150 -10s120 10 150 10v-42c-69 -6 -90 -28 -90 -128v-392c0 -100 21 -122 90 -128v-42c-54 3 -48 10 -150 10s-96 -7 -150 -10v42c69 6 90 28 90 128v176c-45 2 -107 4 -193 4
s-148 -2 -193 -4v-176c0 -100 21 -122 90 -128v-42c-54 3 -48 10 -150 10s-96 -7 -150 -10v42c69 6 90 28 90 128v392c0 100 -21 122 -90 128v42c30 0 106 -10 150 -10s120 10 150 10v-42c-69 -6 -90 -28 -90 -128z" />
    <glyph glyph-name="I" unicode="I" horiz-adv-x="407" 
d="M143 160v392c0 100 -21 122 -90 128v42c30 0 106 -10 150 -10s120 10 150 10v-42c-69 -6 -90 -28 -90 -128v-392c0 -100 21 -122 90 -128v-42c-54 3 -48 10 -150 10s-96 -7 -150 -10v42c69 6 90 28 90 128z" />
    <glyph glyph-name="J" unicode="J" horiz-adv-x="407" 
d="M369 722v-42c-73 0 -93 -28 -93 -126v-454c0 -250 -188 -344 -235 -344c-37 0 -73 25 -73 64c0 26 21 44 45 44c40 0 53 -44 76 -44c35 0 67 70 67 252v482c0 84 -24 126 -118 126v42c93 0 141 -10 190 -10c48 0 108 10 141 10z" />
    <glyph glyph-name="K" unicode="K" horiz-adv-x="778" 
d="M260 364l234 208c24 22 56 56 56 72c0 26 -18 36 -63 36v42c27 0 95 -10 135 -10c39 0 107 10 134 10v-42c-55 0 -95 -19 -143 -62l-227 -204l233 -277c63 -75 135 -105 169 -105v-42c-57 3 -51 10 -158 10s-101 -7 -158 -10v42c38 0 46 12 46 28s-24 42 -57 82l-159 192
l-42 -37v-137c0 -100 21 -122 90 -128v-42c-54 3 -48 10 -150 10s-96 -7 -150 -10v42c69 6 90 28 90 128v392c0 100 -21 122 -90 128v42c30 0 106 -10 150 -10s120 10 150 10v-42c-69 -6 -90 -28 -90 -128v-188z" />
    <glyph glyph-name="L" unicode="L" horiz-adv-x="685" 
d="M140 160v392c0 100 -21 122 -90 128v42c30 0 106 -10 150 -10s120 10 150 10v-42c-69 -6 -90 -28 -90 -128v-394c0 -98 44 -110 132 -110c196 0 218 76 246 158h36c0 -48 -42 -148 -42 -228c-32 11 -52 17 -89 19c-37 3 -90 3 -188 3c-134 0 -206 -2 -247 -5
c-40 -2 -49 -5 -56 -5h-2v42c69 6 90 28 90 128z" />
    <glyph glyph-name="M" unicode="M" horiz-adv-x="1037" 
d="M36 -10v42c67 0 88 38 101 142c19 154 20 240 20 355s-28 151 -93 151v42c35 -4 77 -10 117 -10c24 0 54 6 80 10c0 -46 26 -88 50 -125l220 -363l216 376c20 36 32 72 32 112c28 -4 62 -10 88 -10c44 0 84 6 119 10v-42c-75 0 -95 -28 -95 -126l1 -396
c0 -98 40 -126 99 -126v-42c-55 3 -49 10 -152 10c-104 0 -98 -7 -153 -10v42c61 0 85 28 85 126v388h-2c-99 -182 -203 -348 -266 -546h-23c-51 198 -177 364 -273 540h-2c-4 -114 -12 -229 -12 -384c0 -96 46 -124 110 -124v-42c-48 3 -43 10 -133 10
c-91 0 -86 -7 -134 -10z" />
    <glyph glyph-name="N" unicode="N" horiz-adv-x="889" 
d="M36 680v42c29 -4 81 -10 122 -10c24 0 50 6 69 10c7 -32 33 -60 62 -90l416 -432v312c0 136 -38 168 -109 168v42c25 0 89 -10 127 -10c37 0 101 10 130 10v-42c-66 0 -100 -32 -100 -168v-380c0 -70 4 -108 4 -154h-26l-538 578v-356c0 -136 34 -168 120 -168v-42
c-50 3 -44 10 -138 10c-95 0 -89 -7 -139 -10v42c71 0 109 32 109 168v329c0 117 -60 151 -109 151z" />
    <glyph glyph-name="O" unicode="O" horiz-adv-x="889" 
d="M715 308c0 196 -97 378 -299 378c-145 0 -242 -130 -242 -282c0 -196 97 -378 299 -378c145 0 242 130 242 282zM44 340c0 236 175 394 401 394c228 0 400 -146 400 -374c0 -204 -155 -382 -423 -382c-212 0 -378 150 -378 362z" />
    <glyph glyph-name="P" unicode="P" horiz-adv-x="685" 
d="M286 344v42c26 -14 62 -26 90 -26c92 0 142 54 142 144c0 100 -64 170 -172 170c-29 0 -57 -2 -86 -10v-504c0 -100 28 -128 106 -128v-42c-57 3 -51 10 -158 10s-101 -7 -158 -10v42c69 6 90 28 90 128v392c0 100 -21 122 -90 128v42c49 -4 88 -10 147 -10
c64 0 119 10 195 10c170 0 256 -90 256 -199c0 -123 -100 -217 -230 -217c-48 0 -106 12 -132 38z" />
    <glyph glyph-name="Q" unicode="Q" horiz-adv-x="889" 
d="M715 308c0 196 -97 378 -299 378c-145 0 -242 -130 -242 -282c0 -196 97 -378 299 -378c145 0 242 130 242 282zM840 -146l16 -30c-46 -44 -108 -68 -184 -68c-198 0 -314 192 -374 192c-24 0 -38 -8 -50 -12l-12 38c17 8 36 16 74 18v4c-133 20 -266 174 -266 344
c0 232 175 394 403 394c225 0 398 -152 398 -358c0 -252 -173 -398 -449 -398v-2c144 -34 243 -140 365 -140c27 0 57 8 79 18z" />
    <glyph glyph-name="R" unicode="R" horiz-adv-x="741" 
d="M260 664v-288h84c124 0 189 58 189 140c0 104 -71 158 -195 158c-34 0 -53 -5 -78 -10zM140 160v392c0 100 -21 122 -90 128v42c40 0 74 -10 125 -10c85 0 105 10 223 10c176 0 265 -72 265 -176c0 -128 -123 -182 -176 -198c60 -126 118 -306 273 -354v-36
c-217 6 -329 189 -393 370h-107v-170c0 -88 20 -126 98 -126v-42c-55 3 -49 10 -154 10s-99 -7 -154 -10v42c69 6 90 28 90 128z" />
    <glyph glyph-name="S" unicode="S" horiz-adv-x="611" 
d="M506 548h-36c0 98 -62 144 -166 144c-80 0 -128 -54 -128 -106c0 -160 372 -154 372 -372c0 -118 -88 -236 -270 -236c-37 0 -62 5 -86 9c-23 5 -44 9 -72 9c-26 0 -50 -6 -78 -13c34 51 25 173 32 225h36v-16c0 -80 51 -166 173 -166c76 0 163 42 163 120
c0 184 -364 154 -364 388c0 124 88 200 220 200c51 0 80 -5 100 -10s32 -10 50 -10c20 0 32 4 42 8c11 4 20 8 33 8c-22 -45 -9 -131 -21 -182z" />
    <glyph glyph-name="T" unicode="T" horiz-adv-x="630" 
d="M487 32v-42c-62 3 -55 10 -172 10s-110 -7 -172 -10v42c92 0 112 44 112 128v502c-18 0 -35 2 -52 2c-127 0 -171 -30 -171 -106h-36c2 75 22 105 22 168c0 11 -4 22 -4 30c35 0 45 -44 131 -44h340c86 0 96 44 131 44c0 -8 -4 -19 -4 -30c0 -63 20 -93 22 -168h-36
c0 76 -44 106 -171 106c-17 0 -34 -2 -52 -2v-502c0 -84 20 -128 112 -128z" />
    <glyph glyph-name="U" unicode="U" horiz-adv-x="870" 
d="M15 680v42c33 0 116 -10 164 -10s131 10 164 10v-42c-78 0 -98 -40 -98 -126v-236c0 -188 100 -274 231 -274c148 0 223 110 223 302v166c0 136 -38 168 -129 168v42c29 0 101 -10 143 -10c41 0 114 10 142 10v-42c-74 0 -108 -32 -108 -168v-146
c0 -218 -67 -388 -321 -388c-184 0 -301 114 -301 320v256c0 98 -20 126 -110 126z" />
    <glyph glyph-name="V" unicode="V" horiz-adv-x="704" 
d="M301 722v-42c-65 0 -87 -16 -87 -58c0 -46 24 -84 179 -463c139 347 177 399 177 458c0 39 -18 63 -85 63v42c24 0 84 -10 118 -10c35 0 95 10 119 10v-42c-49 0 -75 -35 -102 -104c-51 -130 -214 -486 -242 -598h-48c-82 232 -108 292 -227 573
c-47 111 -69 129 -121 129v42c32 0 113 -10 159 -10c47 0 128 10 160 10z" />
    <glyph glyph-name="W" unicode="W" horiz-adv-x="1000" 
d="M273 722v-42c-61 0 -75 -18 -75 -42c0 -44 22 -78 140 -444h2l142 353c-22 115 -59 133 -116 133v42c29 0 101 -10 143 -10c41 0 114 10 142 10v-42c-59 0 -67 -10 -67 -42c0 -74 26 -114 138 -449h2c132 349 148 379 148 421c0 48 -26 70 -104 70v42
c26 0 91 -10 129 -10s103 10 129 10v-42c-48 0 -57 -21 -78 -60c-54 -100 -216 -520 -246 -642h-42c-44 174 -100 334 -156 494c-64 -160 -140 -320 -184 -494h-44c-66 214 -125 439 -202 624c-26 62 -54 78 -100 78v42c30 0 106 -10 150 -10c43 0 119 10 149 10z" />
    <glyph glyph-name="X" unicode="X" horiz-adv-x="759" 
d="M743 722v-42c-61 0 -102 -32 -146 -88l-163 -207l185 -266c33 -47 75 -87 137 -87v-42c-59 3 -52 10 -163 10c-112 0 -105 -7 -164 -10v42c57 0 71 10 71 34c0 22 -12 44 -149 231c-123 -147 -161 -189 -161 -221c0 -28 23 -44 79 -44v-42c-51 3 -45 10 -142 10
s-91 -7 -142 -10v42c62 0 102 30 135 68l203 238l-170 252c-34 51 -92 90 -145 90v42c32 0 114 -10 162 -10s130 10 162 10v-42c-62 0 -72 -16 -72 -32c0 -24 26 -48 147 -222c139 172 151 202 151 220c0 20 -8 34 -66 34v42c25 0 89 -10 126 -10c36 0 100 10 125 10z" />
    <glyph glyph-name="Y" unicode="Y" horiz-adv-x="667" 
d="M690 722v-42c-45 0 -85 -27 -126 -93l-163 -260v-169c0 -98 20 -126 114 -126v-42c-62 3 -55 10 -171 10s-109 -7 -171 -10v42c88 0 108 28 108 126v133l-152 277c-50 92 -85 112 -153 112v42c32 0 114 -10 162 -10c47 0 129 10 161 10v-42c-46 0 -66 -12 -66 -36
c0 -28 27 -72 143 -269c136 213 147 219 147 264c0 25 -15 41 -78 41v42c25 0 87 -10 123 -10c35 0 98 10 122 10z" />
    <glyph glyph-name="Z" unicode="Z" horiz-adv-x="704" 
d="M185 48h269c116 0 180 45 188 149h34c2 -10 2 -20 2 -30c0 -59 -28 -118 -28 -177c0 -6 2 -14 2 -22c-63 32 -85 32 -348 32c-138 0 -211 -2 -250 -5c-40 -2 -46 -5 -50 -5h-2v40c62 52 117 129 168 199l316 435h-246c-100 0 -142 -30 -142 -114h-34c0 8 -2 16 -2 24
c0 78 18 96 18 135c0 20 -4 32 -4 45c46 -16 37 -42 173 -42c162 0 258 3 318 5c61 3 86 5 106 5h2v-28c-55 -50 -103 -109 -147 -169z" />
    <glyph glyph-name="bracketleft" unicode="[" horiz-adv-x="407" 
d="M322 -184v-36h-219c3 89 9 177 9 266v428c0 89 -6 177 -9 266h219v-36c-99 0 -124 -30 -124 -125v-638c0 -95 25 -125 124 -125z" />
    <glyph glyph-name="backslash" unicode="\" horiz-adv-x="278" 
d="M-69 734h75l342 -756h-75z" />
    <glyph glyph-name="bracketright" unicode="]" horiz-adv-x="407" 
d="M85 704v36h219c-3 -89 -9 -177 -9 -266v-428c0 -89 6 -177 9 -266h-219v36c99 0 124 30 124 125v638c0 95 -25 125 -124 125z" />
    <glyph glyph-name="asciicircum" unicode="^" horiz-adv-x="600" 
d="M166 331h-82l180 365h72l180 -365h-83l-133 277z" />
    <glyph glyph-name="underscore" unicode="_" horiz-adv-x="500" 
d="M500 -125h-500v50h500v-50z" />
    <glyph glyph-name="quoteleft" unicode="&#x2018;" horiz-adv-x="241" 
d="M170 752v-36c-35 -6 -59 -44 -59 -85c0 -6 1 -11 4 -17c4 4 13 6 19 6c26 0 43 -33 43 -63c0 -28 -22 -67 -54 -67c-59 0 -70 58 -70 96c0 70 45 149 117 166z" />
    <glyph glyph-name="a" unicode="a" horiz-adv-x="519" 
d="M320 188v44c-62 -10 -178 -45 -178 -124c0 -41 25 -64 65 -64c71 0 113 62 113 144zM486 74l16 -24c-24 -36 -78 -68 -122 -68c-38 0 -59 35 -66 69c-43 -40 -114 -69 -174 -69c-58 0 -112 32 -112 96c0 124 194 184 292 198v48c0 63 -40 88 -82 88
c-68 0 -108 -28 -108 -55c0 -13 5 -23 11 -32l-25 -21c-18 22 -36 50 -54 66c55 61 137 104 219 104c102 0 143 -59 143 -157c0 -69 -12 -139 -12 -208c0 -37 12 -57 32 -57c16 0 32 12 42 22z" />
    <glyph glyph-name="b" unicode="b" 
d="M194 370v-210c0 -108 43 -142 105 -142c94 0 146 88 146 186c0 108 -56 208 -153 208c-40 0 -68 -17 -98 -42zM35 -18v38c46 20 55 44 55 124v404c0 110 -10 150 -69 150v36c63 6 131 32 149 62h32c-8 -28 -8 -58 -8 -122v-261c37 35 88 61 140 61
c129 0 225 -100 225 -222c0 -152 -120 -270 -264 -270c-84 0 -111 18 -162 18c-39 0 -67 -6 -98 -18z" />
    <glyph glyph-name="c" unicode="c" horiz-adv-x="500" 
d="M454 129l23 -25c-52 -76 -123 -122 -226 -122c-117 0 -217 88 -217 212c0 158 116 280 271 280c49 0 123 -17 123 -71c0 -29 -14 -49 -42 -49c-48 0 -67 70 -118 70c-83 0 -146 -72 -146 -166c0 -100 90 -192 200 -192c62 0 99 23 132 63z" />
    <glyph glyph-name="d" unicode="d" 
d="M566 28v-36c-50 0 -93 -4 -132 -10c-14 14 -30 34 -40 65c-38 -37 -84 -65 -144 -65c-130 0 -216 105 -216 231c0 139 110 261 227 261c57 0 97 -12 139 -36v110c0 110 -10 150 -69 150v36c63 6 131 32 149 62h32c-8 -28 -8 -58 -8 -122v-528c0 -86 8 -110 62 -118z
M400 200v188c-18 16 -58 36 -96 36c-102 0 -156 -84 -156 -191c0 -79 52 -189 137 -189c91 0 115 81 115 156z" />
    <glyph glyph-name="e" unicode="e" horiz-adv-x="519" 
d="M468 262h-330v-36c0 -76 68 -160 176 -160c50 0 104 30 140 75l25 -19c-45 -84 -111 -140 -212 -140c-143 0 -233 94 -233 226c0 143 102 266 255 266c129 0 173 -90 179 -212zM140 306h224c0 68 -38 118 -104 118c-68 0 -112 -63 -120 -118z" />
    <glyph glyph-name="f" unicode="f" horiz-adv-x="352" 
d="M211 556v-100h105v-48h-105v-268c0 -92 31 -106 103 -112v-36c-36 2 -68 8 -164 8c-40 0 -80 -6 -120 -8v36c36 4 77 20 77 112v268h-71v48h71v32c0 182 110 308 238 308c47 0 82 -22 82 -62c0 -27 -21 -48 -48 -48c-39 0 -63 44 -92 44c-48 0 -76 -58 -76 -174z" />
    <glyph glyph-name="g" unicode="g" horiz-adv-x="537" 
d="M128 -123c0 -47 36 -77 128 -77c110 0 180 44 180 106c0 34 -50 62 -135 62c-115 0 -173 -36 -173 -91zM545 460l-19 -86c-10 -6 -21 -8 -36 -8s-30 3 -44 9l-2 -2c8 -21 10 -37 10 -62c0 -207 -266 -137 -266 -219c0 -83 342 61 342 -166c0 -102 -130 -170 -292 -170
c-130 0 -196 48 -196 103c0 69 73 97 127 116v2c-52 5 -103 38 -103 95c0 5 1 11 2 18c40 0 87 26 120 55c-72 8 -142 71 -142 147c0 94 74 182 202 182c98 0 162 -44 202 -44c32 0 52 10 62 30h33zM350 287c0 55 -26 143 -108 143c-52 0 -82 -47 -82 -102
c0 -62 25 -145 108 -145c51 0 82 53 82 104z" />
    <glyph glyph-name="h" unicode="h" 
d="M195 346v-234c0 -68 26 -78 69 -84v-36c-41 2 -81 8 -122 8c-40 0 -80 -6 -120 -8v36c43 2 69 16 69 84v436c0 110 -10 150 -69 150v36c63 6 131 32 149 62h32c-8 -28 -8 -58 -8 -122v-272c59 49 112 72 161 72c108 0 152 -86 152 -188v-174c0 -68 26 -78 69 -84v-36
c-41 2 -81 8 -122 8c-40 0 -80 -6 -120 -8v36c43 2 69 16 69 84v140c0 108 -42 146 -107 146c-25 0 -62 -12 -102 -52z" />
    <glyph glyph-name="i" unicode="i" horiz-adv-x="296" 
d="M38 -8v36c43 2 61 16 61 84v126c0 134 -10 150 -61 150v36c41 0 113 20 141 50h32c-8 -28 -8 -58 -8 -122v-240c0 -68 28 -82 77 -84v-36c-41 2 -81 8 -122 8c-40 0 -80 -6 -120 -8zM169 728c33 0 50 -22 50 -46c0 -48 -48 -82 -94 -82c-33 0 -50 22 -50 46
c0 48 48 82 94 82z" />
    <glyph glyph-name="j" unicode="j" horiz-adv-x="278" 
d="M27 384v36c50 6 115 24 157 54h30c-10 -46 -10 -90 -10 -143v-251c0 -152 -86 -324 -206 -324c-42 0 -70 26 -70 62c0 28 18 46 44 46c30 0 56 -42 75 -42c27 0 53 72 53 200v246c0 106 -18 116 -73 116zM170 728c33 0 50 -22 50 -46c0 -48 -48 -82 -94 -82
c-33 0 -50 22 -50 46c0 48 48 82 94 82z" />
    <glyph glyph-name="k" unicode="k" horiz-adv-x="574" 
d="M103 140v408c0 110 -10 150 -69 150v36c63 6 131 32 149 62h32c-8 -28 -8 -58 -8 -122v-432l145 113c22 17 35 30 35 49c0 20 -38 24 -54 24v36c41 0 81 -8 121 -8c37 0 73 8 109 8v-36c-37 0 -79 -18 -106 -39l-138 -107l152 -176c34 -40 81 -78 112 -78v-36
c-40 2 -79 8 -119 8c-44 0 -87 -6 -131 -8v36c21 0 40 5 40 23c0 10 -5 19 -17 33l-117 138l-32 -20v-90c0 -64 22 -84 65 -84v-36c-31 2 -71 8 -112 8c-40 0 -80 -6 -122 -8v36c37 4 65 20 65 112z" />
    <glyph glyph-name="l" unicode="l" horiz-adv-x="278" 
d="M22 -8v36c41 2 59 16 59 84v436c0 110 -10 150 -69 150v36c63 6 131 32 149 62h32c-8 -28 -8 -58 -8 -122v-562c0 -68 28 -82 77 -84v-36c-41 2 -81 8 -122 8c-40 0 -80 -6 -118 -8z" />
    <glyph glyph-name="m" unicode="m" horiz-adv-x="889" 
d="M701 112v140c0 108 -43 146 -108 146c-22 0 -57 -11 -99 -49c4 -18 5 -40 5 -63v-174c0 -68 31 -78 74 -84v-36c-41 2 -81 8 -122 8c-40 0 -80 -6 -120 -8v36c43 2 68 16 68 84v140c0 108 -41 146 -106 146c-23 0 -60 -12 -96 -52v-234c0 -68 26 -78 69 -84v-36
c-41 2 -81 8 -122 8c-40 0 -80 -6 -122 -8v36c45 2 71 16 71 84v126c0 134 -16 150 -71 150v36c43 0 115 20 147 50h32c-2 -17 -4 -30 -4 -72c55 49 108 72 155 72c74 0 113 -31 131 -83c73 62 124 83 169 83c108 0 153 -86 153 -188v-174c0 -68 25 -78 68 -84v-36
c-41 2 -81 8 -122 8c-40 0 -80 -6 -120 -8v36c43 2 70 16 70 84z" />
    <glyph glyph-name="n" unicode="n" 
d="M201 346v-234c0 -68 26 -78 69 -84v-36c-41 2 -81 8 -122 8c-40 0 -80 -6 -120 -8v36c43 2 69 16 69 84v126c0 134 -18 150 -69 150v36c41 0 113 20 145 50h32c-2 -17 -4 -30 -4 -72c55 49 108 72 155 72c108 0 152 -86 152 -188v-174c0 -68 26 -78 69 -84v-36
c-41 2 -81 8 -122 8c-40 0 -80 -6 -120 -8v36c43 2 69 16 69 84v140c0 108 -42 146 -107 146c-23 0 -60 -12 -96 -52z" />
    <glyph glyph-name="o" unicode="o" horiz-adv-x="574" 
d="M426 178c0 134 -62 252 -155 252c-75 0 -123 -66 -123 -152c0 -134 62 -252 155 -252c75 0 123 66 123 152zM540 236c0 -152 -107 -254 -259 -254c-138 0 -247 98 -247 238c0 152 107 254 259 254c138 0 247 -98 247 -238z" />
    <glyph glyph-name="p" unicode="p" 
d="M194 330v-254c26 -22 80 -50 115 -50c81 0 136 70 136 160c0 110 -55 214 -151 214c-55 0 -93 -39 -100 -70zM294 -200v-36c-37 2 -85 10 -140 10c-43 0 -97 -8 -132 -10v36c52 0 68 36 68 127v355c0 86 -16 102 -68 102v36c50 8 100 26 148 54h30c-4 -22 -6 -48 -6 -74
c38 37 80 74 150 74c110 0 215 -98 215 -238c0 -128 -87 -254 -233 -254c-64 0 -100 10 -132 27v-97c0 -88 42 -112 100 -112z" />
    <glyph glyph-name="q" unicode="q" 
d="M396 133v241c-26 30 -70 50 -112 50c-100 0 -146 -89 -146 -182c0 -94 63 -198 165 -198c60 0 93 28 93 89zM579 -200v-36c-30 2 -94 10 -133 10c-44 0 -89 -8 -133 -10v36c69 6 83 44 83 116v116l-2 2c-22 -33 -93 -52 -133 -52c-139 0 -227 93 -227 232
c0 153 121 260 268 260c53 0 103 -24 145 -55c13 19 31 45 45 55h38c-16 -36 -30 -70 -30 -164v-380c0 -96 20 -124 79 -130z" />
    <glyph glyph-name="r" unicode="r" horiz-adv-x="407" 
d="M29 384v36c48 6 110 26 145 54h32c-5 -26 -8 -56 -7 -86c40 38 81 86 140 86c41 0 62 -28 62 -67c0 -32 -30 -65 -62 -65s-38 44 -74 44c-20 0 -48 -16 -62 -44v-202c0 -72 38 -112 91 -112v-36c-53 2 -93 8 -134 8c-40 0 -80 -6 -132 -8v36c54 0 71 46 71 112v146
c0 72 -18 98 -70 98z" />
    <glyph glyph-name="s" unicode="s" horiz-adv-x="444" 
d="M362 334h-26c0 58 -48 102 -105 102s-83 -27 -83 -58c0 -85 246 -95 246 -246c0 -86 -75 -150 -176 -150c-35 0 -59 5 -77 9c-18 5 -30 9 -45 9c-16 0 -28 -6 -33 -14h-26c19 34 11 114 23 167l30 -4c-1 -7 -2 -13 -2 -20c0 -64 66 -103 125 -103c47 0 83 21 83 64
c0 96 -236 108 -236 246c0 96 90 138 167 138c23 0 43 -4 60 -8s31 -8 41 -8c20 0 27 9 28 16h26c-19 -46 -12 -95 -20 -140z" />
    <glyph glyph-name="t" unicode="t" horiz-adv-x="370" 
d="M158 645h42c-4 -57 -8 -109 -8 -146v-43h144v-48h-144v-270c0 -54 24 -80 67 -80c37 0 67 26 87 54l24 -22c-31 -62 -85 -108 -152 -108c-92 0 -130 44 -130 152v274h-88v42c96 10 150 108 158 195z" />
    <glyph glyph-name="u" unicode="u" 
d="M573 50v-36c-40 0 -107 -18 -140 -32c-17 14 -31 38 -37 62c-42 -35 -90 -62 -160 -62c-114 0 -150 56 -150 170c0 94 4 148 4 187c0 50 -10 81 -63 81v36c67 0 115 6 153 18h26c-10 -38 -16 -104 -16 -168v-134c0 -83 38 -124 106 -124c40 0 80 24 98 56v198
c0 88 -20 118 -64 118v36c69 0 126 6 150 18h28c-6 -44 -10 -97 -10 -141v-228c0 -47 33 -55 75 -55z" />
    <glyph glyph-name="v" unicode="v" horiz-adv-x="500" 
d="M519 464v-36c-43 0 -66 -34 -86 -78l-168 -368h-42l-140 343c-33 81 -71 103 -102 103v36c26 0 90 -8 128 -8s102 8 128 8v-36c-47 -2 -63 -16 -63 -42c0 -36 89 -218 107 -268c33 81 105 204 105 260c0 30 -14 50 -69 50v36c20 0 71 -8 101 -8s81 8 101 8z" />
    <glyph glyph-name="w" unicode="w" horiz-adv-x="759" 
d="M259 -18h-37l-152 373c-15 37 -42 73 -82 73v36c23 0 82 -8 117 -8c34 0 93 8 117 8v-36c-29 0 -50 -12 -50 -41c0 -33 88 -222 105 -265l81 191c-30 93 -34 115 -82 115v36c22 0 78 -8 111 -8c32 0 88 8 111 8v-36c-24 0 -52 -8 -52 -42c0 -36 81 -218 103 -268
c29 81 101 202 101 260c0 30 -14 50 -68 50v36c19 0 69 -8 98 -8c28 0 78 8 98 8v-36c-33 0 -53 -16 -75 -64l-174 -382h-36l-113 284z" />
    <glyph glyph-name="x" unicode="x" horiz-adv-x="537" 
d="M258 464v-36c-31 0 -46 -6 -44 -23c2 -15 16 -31 85 -119c61 82 75 85 75 119c0 13 -7 23 -44 23v36c20 0 71 -8 101 -8s81 8 101 8v-36c-47 0 -77 -15 -112 -55l-101 -116l151 -193c14 -18 41 -36 66 -36v-36c-45 2 -40 8 -125 8c-86 0 -81 -6 -126 -8v36
c37 0 53 6 53 25c0 17 -14 41 -93 138c-81 -97 -91 -111 -91 -131c0 -14 13 -32 46 -32v-36c-34 2 -30 8 -95 8s-61 -6 -95 -8v36c39 0 65 16 100 58l112 136l-98 130c-46 62 -69 76 -104 76v36c24 0 84 -8 119 -8s95 8 119 8z" />
    <glyph glyph-name="y" unicode="y" horiz-adv-x="519" 
d="M226 464v-36c-27 0 -52 -15 -52 -46c0 -28 12 -44 118 -269c92 193 110 219 110 269c0 34 -36 46 -68 46v36c21 0 73 -8 104 -8s83 8 104 8v-36c-60 0 -80 -53 -103 -102l-114 -238c-99 -207 -179 -332 -266 -332c-35 0 -71 19 -71 58c0 25 20 50 46 50
c36 0 41 -32 72 -32c49 0 110 122 127 159l-170 374c-18 39 -35 63 -77 63v36c24 0 85 -8 120 -8s96 8 120 8z" />
    <glyph glyph-name="z" unicode="z" horiz-adv-x="519" 
d="M473 470l9 -26c-58 -36 -95 -103 -133 -159l-166 -245h79c174 0 198 60 210 110h28c0 -80 -54 -114 -54 -180c-34 17 -66 30 -131 30h-199c-38 0 -70 -8 -89 -12l-13 24c57 46 112 126 142 170l159 234h-123c-88 0 -124 -33 -124 -100h-28c0 64 10 115 10 133
c0 13 -2 21 -4 33c25 -9 68 -26 128 -26h146c84 0 123 8 153 14z" />
    <glyph glyph-name="braceleft" unicode="{" horiz-adv-x="407" 
d="M114 -73v203c0 73 -12 109 -68 130c56 21 68 57 68 130v203c0 136 68 159 195 159v-36c-80 0 -109 -38 -109 -117v-192c0 -81 -2 -126 -75 -146v-2c73 -20 75 -65 75 -146v-192c0 -79 29 -117 109 -117v-36c-127 0 -195 23 -195 159z" />
    <glyph glyph-name="bar" unicode="|" horiz-adv-x="222" 
d="M73 750h76v-1000h-76v1000z" />
    <glyph glyph-name="braceright" unicode="}" horiz-adv-x="407" 
d="M293 593v-203c0 -73 12 -109 68 -130c-56 -21 -68 -57 -68 -130v-203c0 -136 -68 -159 -195 -159v36c80 0 109 38 109 117v192c0 81 2 126 75 146v2c-73 20 -75 65 -75 146v192c0 79 -29 117 -109 117v36c127 0 195 -23 195 -159z" />
    <glyph glyph-name="asciitilde" unicode="~" horiz-adv-x="600" 
d="M495 304l36 -62c-30 -42 -63 -86 -125 -86c-40 0 -71 17 -104 34s-67 34 -113 34c-44 0 -68 -37 -84 -72l-36 62c22 42 58 86 125 86c37 0 78 -17 115 -34c38 -17 73 -34 98 -34c40 0 65 37 88 72z" />
    <glyph glyph-name="exclamdown" unicode="&#xa1;" horiz-adv-x="315" 
d="M157 342c-40 0 -60 34 -60 74s20 74 60 74s60 -34 60 -74s-20 -74 -60 -74zM139 278h36c6 -260 34 -406 62 -446c-8 -26 -56 -94 -79 -94s-71 68 -79 94c28 40 56 186 60 446z" />
    <glyph glyph-name="cent" unicode="&#xa2;" 
d="M252 233v286c-70 -10 -98 -67 -98 -134c0 -68 42 -125 98 -152zM292 522v-302c11 -4 23 -6 35 -6c38 0 88 24 115 52l20 -26c-40 -54 -102 -98 -170 -102v-99h-40v99c-104 10 -180 94 -180 198c0 124 90 210 180 230v90h40v-86c91 -4 136 -26 136 -73
c0 -32 -13 -57 -48 -57c-5 0 -15 2 -20 6c3 7 6 13 6 20c0 43 -41 56 -74 56z" />
    <glyph glyph-name="sterling" unicode="&#xa3;" 
d="M94 61c0 -22 22 -33 43 -33c34 0 65 22 81 50c-26 20 -47 28 -72 28c-26 0 -52 -21 -52 -45zM458 386v-44h-145c15 -28 29 -58 29 -93c0 -46 -12 -78 -38 -116c42 -21 115 -73 163 -73c21 0 45 7 45 33c0 13 -7 21 -18 29c2 8 11 12 22 12c24 0 40 -23 40 -43
c0 -71 -66 -107 -132 -107c-88 0 -148 42 -175 65c-26 -35 -68 -65 -109 -65c-52 0 -94 26 -94 75c0 55 60 101 136 101c33 0 50 -5 66 -8c4 13 6 26 6 40c0 63 -49 103 -80 150h-105v44h84c-20 37 -31 76 -31 110c0 122 118 216 225 216c93 0 189 -42 189 -134
c0 -44 -30 -74 -71 -74c-27 0 -41 22 -43 48c27 1 40 19 40 41c0 40 -34 75 -108 75c-72 0 -128 -42 -128 -112c0 -57 41 -123 69 -170h163z" />
    <glyph glyph-name="fraction" unicode="&#x2044;" horiz-adv-x="167" 
d="M265 712h69l-432 -728h-69z" />
    <glyph glyph-name="yen" unicode="&#xa5;" 
d="M208 394h-120v44h100l-25 54c-72 160 -98 172 -152 172v42c40 -4 80 -10 137 -10c33 0 81 6 121 10v-42c-37 0 -53 -12 -53 -34c0 -42 58 -147 115 -263c95 190 117 225 117 258c0 24 -12 40 -63 39v42c35 -4 71 -10 103 -10s73 6 93 10v-42c-36 0 -68 -26 -102 -90
l-69 -136h106v-44h-129l-33 -64v-2h162v-44h-162v-130c0 -95 18 -122 99 -122v-42c-58 4 -103 10 -150 10c-45 0 -90 -6 -147 -10v42c76 0 94 27 94 122v130h-162v44h151z" />
    <glyph glyph-name="florin" unicode="&#x192;" 
d="M226 364h-91l9 44h85c8 140 63 326 237 326c50 0 92 -22 92 -75c0 -31 -31 -51 -72 -51c4 14 6 23 6 35c0 23 -16 43 -38 43c-76 0 -106 -112 -112 -278h113l-9 -44h-106c-22 -386 -132 -524 -259 -524c-47 0 -101 25 -101 79c0 27 15 53 44 53c10 0 22 -5 27 -10
c-6 -6 -13 -18 -13 -30c0 -22 26 -44 47 -44c93 0 123 148 141 476z" />
    <glyph glyph-name="section" unicode="&#xa7;" 
d="M449 158c0 133 -221 221 -282 332c-17 -27 -23 -46 -23 -79c0 -153 219 -205 274 -330c23 20 31 48 31 77zM507 196c0 -49 -35 -116 -75 -146c10 -22 15 -44 15 -62c0 -122 -104 -220 -212 -220c-56 0 -101 28 -101 62c0 24 17 48 39 48c49 0 60 -50 124 -50
c56 0 82 46 82 97c0 168 -285 175 -285 423c0 63 22 121 58 171c-14 22 -17 51 -17 71c0 122 102 206 210 206c47 0 94 -30 94 -69c0 -25 -24 -41 -47 -41c-37 0 -36 62 -89 62c-56 0 -100 -46 -100 -101c0 -146 304 -205 304 -451z" />
    <glyph glyph-name="currency" unicode="&#xa4;" 
d="M130 348c0 -92 74 -172 166 -172s166 80 166 172s-74 172 -166 172s-166 -80 -166 -172zM494 201l56 -56l-50 -50l-55 55c-42 -31 -93 -50 -149 -50s-107 19 -149 50l-55 -55l-50 50l56 56c-32 41 -50 92 -50 147s18 106 50 147l-56 56l50 50l55 -55c42 31 93 50 149 50
s107 -19 149 -50l55 55l50 -50l-56 -56c32 -41 50 -92 50 -147s-18 -106 -50 -147z" />
    <glyph glyph-name="quotesingle" unicode="'" horiz-adv-x="222" 
d="M70 679c0 25 8 55 41 55s41 -30 41 -55c0 -41 -9 -134 -19 -230c-2 -20 -11 -31 -22 -31s-20 11 -22 31c-10 96 -19 189 -19 230z" />
    <glyph glyph-name="quotedblleft" unicode="&#x201c;" horiz-adv-x="426" 
d="M357 752v-36c-35 -6 -59 -44 -59 -85c0 -6 1 -11 4 -17c4 4 13 6 19 6c26 0 43 -33 43 -63c0 -28 -22 -67 -54 -67c-59 0 -70 58 -70 96c0 70 45 149 117 166zM171 752v-36c-35 -6 -59 -44 -59 -85c0 -6 1 -11 4 -17c4 4 13 6 19 6c26 0 43 -33 43 -63
c0 -28 -22 -67 -54 -67c-59 0 -70 58 -70 96c0 70 45 149 117 166z" />
    <glyph glyph-name="guillemotleft" unicode="&#xab;" horiz-adv-x="519" 
d="M228 425l25 -25c-40 -58 -79 -117 -123 -172c41 -57 84 -114 123 -172l-25 -25c-43 50 -137 128 -189 179v35c67 56 127 119 189 180zM436 425l25 -25c-40 -58 -79 -117 -123 -172c41 -57 84 -114 123 -172l-25 -25c-43 50 -137 128 -189 179v35c67 56 127 119 189 180z
" />
    <glyph glyph-name="guilsinglleft" unicode="&#x2039;" horiz-adv-x="315" 
d="M233 425l25 -25c-40 -58 -79 -117 -123 -172c41 -57 84 -114 123 -172l-25 -25c-43 50 -137 128 -189 179v35c67 56 127 119 189 180z" />
    <glyph glyph-name="guilsinglright" unicode="&#x203a;" horiz-adv-x="315" 
d="M82 31l-25 25c40 58 79 117 123 172c-41 57 -84 114 -123 172l25 25c43 -50 137 -128 189 -179v-35c-67 -56 -127 -119 -189 -180z" />
    <glyph glyph-name="endash" unicode="&#x2013;" horiz-adv-x="500" 
d="M0 190v76h500v-76h-500z" />
    <glyph glyph-name="dagger" unicode="&#x2020;" 
d="M509 442h-26c-8 36 -28 54 -68 54h-88c0 -57 2 -158 32 -188c-41 -130 -45 -407 -45 -542h-36c0 135 -4 412 -45 542c30 30 32 131 32 188h-88c-40 0 -60 -18 -68 -54h-26c2 24 4 62 4 83c0 22 -2 60 -4 84h26c8 -36 28 -53 68 -53h88v130c0 44 -11 68 -60 68v30
c22 -3 62 -8 90 -8c30 0 70 5 92 8v-30c-49 0 -60 -24 -60 -68v-130h88c40 0 60 17 68 53h26c-2 -24 -4 -62 -4 -84c0 -21 2 -59 4 -83z" />
    <glyph glyph-name="daggerdbl" unicode="&#x2021;" 
d="M509 -51h-26c-8 36 -28 53 -68 53h-88v-130c0 -44 11 -68 60 -68v-30c-22 3 -62 8 -92 8c-28 0 -68 -5 -90 -8v30c49 0 60 24 60 68v130h-88c-40 0 -60 -17 -68 -53h-26c2 24 4 62 4 84c0 21 -2 59 -4 83h26c8 -36 28 -54 68 -54h88c0 87 -8 188 -35 218
c27 30 35 131 35 216h-88c-40 0 -60 -18 -68 -54h-26c2 24 4 62 4 83c0 22 -2 60 -4 84h26c8 -36 28 -53 68 -53h88v130c0 44 -11 68 -60 68v30c22 -3 62 -8 90 -8c30 0 70 5 92 8v-30c-49 0 -60 -24 -60 -68v-130h88c40 0 60 17 68 53h26c-2 -24 -4 -62 -4 -84
c0 -21 2 -59 4 -83h-26c-8 36 -28 54 -68 54h-88c0 -85 8 -186 35 -216c-27 -30 -35 -131 -35 -218h88c40 0 60 18 68 54h26c-2 -24 -4 -62 -4 -83c0 -22 2 -60 4 -84z" />
    <glyph glyph-name="periodcentered" unicode="&#xb7;" horiz-adv-x="296" 
d="M148 296c38 0 68 -31 68 -68s-30 -68 -68 -68s-68 31 -68 68s30 68 68 68z" />
    <glyph glyph-name="paragraph" unicode="&#xb6;" horiz-adv-x="600" 
d="M317 -226h-78v528c-124 0 -185 86 -185 212c0 130 59 198 209 198h269v-24c-52 -8 -78 -34 -78 -101v-813h-78v902h-59v-902z" />
    <glyph glyph-name="bullet" unicode="&#x2022;" horiz-adv-x="500" 
d="M72 356c0 98 80 178 178 178s178 -80 178 -178s-80 -178 -178 -178s-178 80 -178 178z" />
    <glyph glyph-name="quotesinglbase" unicode="&#x201a;" horiz-adv-x="241" 
d="M71 -140v36c35 6 59 44 59 85c0 6 -1 11 -4 17c-2 -2 -5 -3 -9 -4c-3 -1 -7 -2 -10 -2c-26 0 -43 33 -43 63c0 28 22 67 54 67c59 0 70 -58 70 -96c0 -70 -45 -149 -117 -166z" />
    <glyph glyph-name="quotedblbase" unicode="&#x201e;" horiz-adv-x="426" 
d="M69 -140v36c35 6 59 44 59 85c0 6 -1 11 -4 17c-2 -2 -5 -3 -9 -4c-3 -1 -7 -2 -10 -2c-26 0 -43 33 -43 63c0 28 22 67 54 67c59 0 70 -58 70 -96c0 -70 -45 -149 -117 -166zM255 -140v36c35 6 59 44 59 85c0 6 -1 11 -4 17c-2 -2 -5 -3 -9 -4c-3 -1 -7 -2 -10 -2
c-26 0 -43 33 -43 63c0 28 22 67 54 67c59 0 70 -58 70 -96c0 -70 -45 -149 -117 -166z" />
    <glyph glyph-name="quotedblright" unicode="&#x201d;" horiz-adv-x="426" 
d="M69 472v36c35 6 59 44 59 85c0 6 -1 11 -4 17c-4 -4 -13 -6 -19 -6c-26 0 -43 33 -43 63c0 28 22 67 54 67c59 0 70 -58 70 -96c0 -70 -45 -149 -117 -166zM255 472v36c35 6 59 44 59 85c0 6 -1 11 -4 17c-4 -4 -13 -6 -19 -6c-26 0 -43 33 -43 63c0 28 22 67 54 67
c59 0 70 -58 70 -96c0 -70 -45 -149 -117 -166z" />
    <glyph glyph-name="guillemotright" unicode="&#xbb;" horiz-adv-x="519" 
d="M83 31l-25 25c40 58 79 117 123 172c-41 57 -84 114 -123 172l25 25c43 -50 137 -128 189 -179v-35c-67 -56 -127 -119 -189 -180zM291 31l-25 25c40 58 79 117 123 172c-41 57 -84 114 -123 172l25 25c43 -50 137 -128 189 -179v-35c-67 -56 -127 -119 -189 -180z" />
    <glyph glyph-name="ellipsis" unicode="&#x2026;" horiz-adv-x="1000" 
d="M167 130c40 0 60 -34 60 -74s-20 -74 -60 -74s-60 34 -60 74s20 74 60 74zM500 130c40 0 60 -34 60 -74s-20 -74 -60 -74s-60 34 -60 74s20 74 60 74zM833 130c40 0 60 -34 60 -74s-20 -74 -60 -74s-60 34 -60 74s20 74 60 74z" />
    <glyph glyph-name="perthousand" unicode="&#x2030;" horiz-adv-x="1147" 
d="M947 344c-45 0 -78 -34 -78 -158s33 -158 78 -158s78 34 78 158s-33 158 -78 158zM947 388c91 0 160 -76 160 -202s-69 -202 -160 -202s-160 76 -160 202s69 202 160 202zM654 712l-443 -728h-63l443 728h63zM596 388c91 0 160 -76 160 -202s-69 -202 -160 -202
s-160 76 -160 202s69 202 160 202zM596 344c-45 0 -78 -34 -78 -158s33 -158 78 -158s78 34 78 158s-33 158 -78 158zM200 714c91 0 160 -76 160 -202s-69 -202 -160 -202s-160 76 -160 202s69 202 160 202zM200 670c-45 0 -78 -34 -78 -158s33 -158 78 -158s78 34 78 158
s-33 158 -78 158z" />
    <glyph glyph-name="questiondown" unicode="&#xbf;" horiz-adv-x="407" 
d="M188 272l41 9c14 -46 94 -141 94 -182c0 -76 -222 -88 -222 -206c0 -57 48 -103 105 -103c31 0 67 15 67 51c0 8 -2 16 -5 23c4 6 18 10 31 10c28 0 50 -22 50 -50c0 -69 -69 -86 -125 -86c-111 0 -183 97 -183 200c0 147 190 166 190 225c0 26 -27 87 -43 109zM213 342
c-40 0 -60 34 -60 74s20 74 60 74s60 -34 60 -74s-20 -74 -60 -74z" />
    <glyph glyph-name="grave" unicode="`" horiz-adv-x="296" 
d="M226 522h-52l-150 94c-23 14 -34 25 -34 46c0 22 19 38 45 38c34 0 42 -16 67 -43z" />
    <glyph glyph-name="acute" unicode="&#xb4;" horiz-adv-x="296" 
d="M122 522h-52l124 135c25 27 33 43 67 43c26 0 45 -16 45 -38c0 -21 -11 -32 -34 -46z" />
    <glyph glyph-name="circumflex" unicode="&#x2c6;" horiz-adv-x="296" 
d="M108 694h79l125 -172h-51l-113 101l-115 -101h-49z" />
    <glyph glyph-name="tilde" unicode="&#x2dc;" horiz-adv-x="296" 
d="M281 660h37c-13 -60 -45 -116 -115 -116c-31 0 -58 11 -82 23c-23 12 -44 24 -65 24c-30 0 -44 -22 -54 -47h-36c9 59 49 116 114 116c30 0 56 -12 80 -24c25 -12 48 -24 71 -24c28 0 43 26 50 48z" />
    <glyph glyph-name="macron" unicode="&#xaf;" horiz-adv-x="296" 
d="M304 560h-323v66h323v-66z" />
    <glyph glyph-name="breve" unicode="&#x2d8;" horiz-adv-x="296" 
d="M0 682h38c6 -48 43 -90 94 -90c67 0 111 20 127 91h36c-6 -94 -57 -161 -156 -161c-90 0 -139 75 -139 160z" />
    <glyph glyph-name="dotaccent" unicode="&#x2d9;" horiz-adv-x="296" 
d="M210 606c0 -42 -48 -74 -81 -74c-27 0 -43 18 -43 41c0 42 47 73 80 73c27 0 44 -17 44 -40z" />
    <glyph glyph-name="dieresis" unicode="&#xa8;" horiz-adv-x="296" 
d="M114 606c0 -42 -48 -74 -81 -74c-27 0 -43 18 -43 41c0 42 47 73 80 73c27 0 44 -17 44 -40zM306 606c0 -42 -48 -74 -81 -74c-27 0 -43 18 -43 41c0 42 47 73 80 73c27 0 44 -17 44 -40z" />
    <glyph glyph-name="ring" unicode="&#x2da;" horiz-adv-x="296" 
d="M148 684c-32 0 -56 -22 -56 -56s24 -56 56 -56s56 22 56 56s-24 56 -56 56zM148 734c58 0 106 -46 106 -106s-48 -106 -106 -106s-106 46 -106 106s48 106 106 106z" />
    <glyph glyph-name="cedilla" unicode="&#xb8;" horiz-adv-x="296" 
d="M81 -96l43 96h42l-32 -64c9 1 20 6 34 6c27 0 82 -15 82 -76c0 -66 -75 -82 -124 -82c-38 0 -64 3 -92 16l16 49c20 -9 41 -17 63 -17c35 0 55 14 55 32c0 24 -22 36 -46 36c-10 0 -20 -2 -29 -4z" />
    <glyph glyph-name="hungarumlaut" unicode="&#x2dd;" horiz-adv-x="296" 
d="M40 522h-52l111 129c24 29 36 49 70 49c26 0 45 -16 45 -38c0 -21 -11 -32 -42 -53zM208 522h-52l124 135c25 27 33 43 67 43c26 0 45 -16 45 -38c0 -21 -11 -32 -34 -46z" />
    <glyph glyph-name="ogonek" unicode="&#x2db;" horiz-adv-x="296" 
d="M258 20v-11c-51 -21 -152 -59 -152 -126c0 -26 18 -51 52 -51c38 0 72 21 102 41l18 -33c-47 -30 -76 -56 -152 -56c-58 0 -102 35 -102 90c0 99 154 134 234 146z" />
    <glyph glyph-name="caron" unicode="&#x2c7;" horiz-adv-x="296" 
d="M188 522h-79l-125 172h51l113 -101l115 101h49z" />
    <glyph glyph-name="emdash" unicode="&#x2014;" horiz-adv-x="1000" 
d="M0 190v76h1000v-76h-1000z" />
    <glyph glyph-name="AE" unicode="&#xc6;" horiz-adv-x="1074" 
d="M516 160v120c-50 0 -101 6 -149 6c-42 0 -75 -6 -115 -6c-77 -100 -121 -150 -121 -195c0 -35 27 -53 86 -53v-42c-48 3 -43 10 -133 10s-85 -7 -133 -10v42c58 10 120 77 176 159l285 417c9 13 15 26 15 42c0 18 -12 30 -66 30v42h2c38 0 61 -2 91 -5
c31 -2 70 -5 138 -5c304 0 328 0 409 22c-9 -32 -3 -142 -12 -171h-30c0 77 -42 101 -212 101c-56 0 -100 -4 -111 -8v-266c22 -2 53 -4 91 -4c126 0 156 30 158 92h36c-4 -30 -8 -62 -8 -116s4 -86 8 -116h-36c-2 62 -32 92 -158 92c-38 0 -69 -2 -91 -4v-176
c0 -98 23 -110 119 -110c140 0 242 36 243 141h36c0 -79 -23 -97 -23 -211c-26 11 -42 17 -88 19c-47 3 -125 3 -277 3c-66 0 -113 -2 -149 -5c-35 -2 -57 -5 -74 -5h-2v42c75 6 95 28 95 128zM516 338v326h-19l-212 -326c41 -2 79 -4 118 -4c38 0 76 2 113 4z" />
    <glyph glyph-name="ordfeminine" unicode="&#xaa;" horiz-adv-x="311" 
d="M200 541v23c-40 -6 -108 -27 -108 -71c0 -19 13 -35 39 -35c37 0 69 36 69 83zM312 477l10 -19c-15 -22 -50 -42 -79 -42c-25 0 -38 16 -43 38c-28 -25 -74 -38 -113 -38c-38 0 -73 20 -73 59c0 80 122 116 186 125v18c0 37 -22 52 -49 52c-45 -3 -62 -16 -66 -28
c0 -8 1 -14 5 -19l-19 -13c-11 14 -23 30 -35 46c36 37 89 56 143 56c70 0 97 -35 97 -94c0 -41 -8 -83 -8 -125c0 -22 8 -29 17 -29c10 0 20 7 27 13z" />
    <glyph glyph-name="Lslash" unicode="&#x141;" horiz-adv-x="685" 
d="M260 350v-192c0 -98 44 -110 132 -110c196 0 218 76 246 158h36c0 -48 -42 -148 -42 -228c-32 11 -52 17 -89 19c-37 3 -90 3 -188 3c-134 0 -206 -2 -247 -5c-40 -2 -49 -5 -56 -5h-2v42c69 6 90 28 90 128v142l-96 -39v70l96 39v180c0 100 -21 122 -90 128v42
c30 0 106 -10 150 -10s120 10 150 10v-42c-69 -6 -90 -28 -90 -128v-132l226 90v-70z" />
    <glyph glyph-name="Oslash" unicode="&#xd8;" horiz-adv-x="889" 
d="M641 571l-353 -475c46 -43 108 -70 185 -70c145 0 242 130 242 282c0 99 -25 194 -74 263zM234 23l-101 -135h-73l124 166c-86 64 -140 165 -140 286c0 236 175 394 401 394c78 0 149 -17 209 -49l103 139h72l-126 -169c88 -64 142 -167 142 -295
c0 -204 -155 -382 -423 -382c-69 0 -133 16 -188 45zM248 141l354 474c-47 44 -109 71 -186 71c-145 0 -242 -130 -242 -282c0 -98 24 -192 74 -263z" />
    <glyph glyph-name="OE" unicode="&#x152;" horiz-adv-x="1167" 
d="M608 194v324c0 116 -48 164 -166 164c-128 0 -268 -92 -268 -326c0 -210 148 -326 292 -326c104 0 142 48 142 164zM728 656v-266c27 -2 58 -4 96 -4c122 0 152 30 154 92h36c-4 -30 -8 -62 -8 -116s4 -86 8 -116h-36c-2 62 -32 92 -154 92c-38 0 -69 -2 -96 -4v-176
c0 -104 32 -110 132 -110c128 0 226 36 231 141h36c0 -79 -23 -97 -23 -211c-15 8 -31 14 -49 17c-17 4 -37 5 -61 5h-268c-54 0 -112 -4 -162 -9c-50 -4 -91 -9 -110 -9c-270 0 -410 158 -410 360c0 242 168 388 410 388c26 0 68 -4 117 -9c50 -4 107 -9 162 -9h171
c76 0 125 0 190 22c-9 -32 -3 -142 -12 -171h-30c0 77 -42 101 -212 101c-56 0 -100 -4 -112 -8z" />
    <glyph glyph-name="ordmasculine" unicode="&#xba;" horiz-adv-x="344" 
d="M87 595c0 -79 37 -145 95 -145c51 0 74 35 74 85c0 76 -32 145 -95 145c-47 0 -74 -38 -74 -85zM175 712c90 0 161 -58 161 -142c0 -92 -70 -154 -168 -154c-90 0 -161 60 -161 144c0 91 70 152 168 152z" />
    <glyph glyph-name="ae" unicode="&#xe6;" horiz-adv-x="778" 
d="M153 324l-29 -17c-16 23 -30 48 -51 68c47 55 126 99 198 99c57 0 94 -20 119 -69c32 42 98 69 152 69c153 0 190 -94 190 -212h-324c0 -112 55 -196 165 -196c50 0 104 30 140 75l25 -19c-45 -84 -111 -140 -212 -140c-60 0 -128 28 -166 86c-58 -49 -128 -86 -206 -86
c-67 0 -126 33 -126 104c0 108 198 184 288 192v31c0 51 -18 103 -78 103c-58 0 -94 -20 -94 -55c0 -11 3 -24 9 -33zM316 206v28c-68 -6 -174 -51 -174 -129c0 -36 32 -61 65 -61c45 0 98 31 131 60c-12 25 -22 53 -22 102zM408 306h220c-3 64 -30 118 -100 118
c-69 0 -120 -64 -120 -118z" />
    <glyph glyph-name="dotlessi" unicode="&#x131;" horiz-adv-x="296" 
d="M38 -8v36c43 2 61 16 61 84v126c0 134 -10 150 -61 150v36c41 0 113 20 141 50h32c-8 -28 -8 -58 -8 -122v-240c0 -68 28 -82 77 -84v-36c-41 2 -81 8 -122 8c-40 0 -80 -6 -120 -8z" />
    <glyph glyph-name="lslash" unicode="&#x142;" horiz-adv-x="278" 
d="M185 497l81 71v-60l-81 -71v-325c0 -68 28 -82 77 -84v-36c-41 2 -81 8 -122 8c-40 0 -80 -6 -118 -8v36c41 2 59 16 59 84v234l-79 -70v60l79 70v142c0 110 -10 150 -69 150v36c63 6 131 32 149 62h32c-8 -28 -8 -58 -8 -122v-177z" />
    <glyph glyph-name="oslash" unicode="&#xf8;" horiz-adv-x="574" 
d="M395 330l-188 -251c24 -33 57 -53 96 -53c75 0 123 66 123 152c0 56 -11 110 -31 152zM179 125l188 252c-26 34 -58 53 -96 53c-75 0 -123 -66 -123 -152c0 -57 11 -110 31 -153zM556 546l-98 -131c51 -41 82 -104 82 -179c0 -152 -107 -254 -259 -254
c-45 0 -87 10 -123 31l-77 -103h-63l98 131c-51 41 -82 104 -82 179c0 152 107 254 259 254c46 0 88 -11 124 -31l77 103h62z" />
    <glyph glyph-name="oe" unicode="&#x153;" horiz-adv-x="889" 
d="M148 278c0 -134 62 -252 150 -252c62 0 116 56 116 174c0 126 -50 230 -143 230c-75 0 -123 -66 -123 -152zM838 262h-332v-36c0 -76 68 -160 178 -160c50 0 104 30 140 75l25 -19c-45 -84 -111 -140 -212 -140c-91 0 -147 38 -177 98c-41 -63 -112 -98 -196 -98
c-121 0 -230 98 -230 238c0 148 110 254 242 254c89 0 152 -48 188 -113c39 69 106 113 196 113c122 0 172 -90 178 -212zM508 306h226c0 68 -32 118 -96 118c-78 0 -122 -63 -130 -118z" />
    <glyph glyph-name="germandbls" unicode="&#xdf;" horiz-adv-x="611" 
d="M31 420v36h69v37c0 179 116 303 268 303c96 0 176 -60 176 -154s-72 -146 -145 -196c93 -62 175 -140 175 -228c0 -148 -116 -236 -184 -236c-41 0 -82 20 -82 60c0 29 20 52 38 52c12 0 24 -4 32 -12c0 -20 8 -48 32 -48c47 0 88 55 88 115c0 75 -124 183 -194 249v35
c76 28 142 104 142 189c0 70 -34 126 -117 126c-94 0 -125 -102 -125 -238v-370c0 -92 22 -112 71 -112v-36c-37 2 -77 8 -118 8c-40 0 -80 -6 -134 -8v36c56 0 77 20 77 112v182c0 80 -38 98 -69 98z" />
    <glyph glyph-name="onesuperior" unicode="&#xb9;" horiz-adv-x="355" 
d="M62 628v30c45 9 113 29 150 59h22c-6 -25 -8 -69 -8 -119v-171c0 -107 14 -119 78 -119v-30c-39 2 -78 6 -117 6c-32 0 -80 -4 -113 -6v30c65 0 76 19 76 86v191c0 37 -2 54 -24 54c-19 0 -54 -8 -64 -11z" />
    <glyph glyph-name="logicalnot" unicode="&#xac;" horiz-adv-x="600" 
d="M452 97v185h-380v76h456v-261h-76z" />
    <glyph glyph-name="mu" unicode="&#xb5;" 
d="M573 50v-36c-40 0 -107 -18 -140 -32c-17 14 -31 38 -37 62c-42 -35 -98 -62 -154 -62c-20 0 -37 2 -52 6v-120c0 -32 2 -66 8 -104h-53c-40 0 -80 -6 -118 -8v36c44 0 59 20 59 112v435c0 50 -6 81 -59 81v36c67 0 115 6 153 18h26c-10 -38 -16 -104 -16 -168v-134
c0 -83 38 -124 106 -124c36 0 80 24 98 56v198c0 86 -20 118 -64 118v36c69 0 126 6 150 18h28c-6 -44 -10 -97 -10 -141v-228c0 -47 33 -55 75 -55z" />
    <glyph glyph-name="trademark" unicode="&#x2122;" horiz-adv-x="990" 
d="M120 360v328h-47c-40 0 -57 -29 -63 -64h-24v88h354v-88h-24c-6 35 -23 64 -63 64h-47v-328c0 -18 10 -28 49 -28v-24h-186v24c40 0 51 10 51 28zM626 307l-143 297h-1v-206c0 -48 4 -62 51 -66v-24h-132v24c46 4 51 18 51 66v241c-13 31 -40 49 -70 49v24h133l146 -296
l154 296h114v-24c-46 0 -55 -16 -55 -49v-279c0 -18 11 -28 50 -28v-24h-185v24c39 0 49 10 49 28v245h-2l-148 -298h-12z" />
    <glyph glyph-name="Eth" unicode="&#xd0;" horiz-adv-x="889" 
d="M258 394h270v-54h-270v-165c0 -113 44 -137 142 -137c193 0 319 136 319 310c0 192 -130 326 -347 326c-50 0 -77 -7 -114 -11v-269zM48 394h90v158c0 100 -21 122 -88 128v42c48 0 90 -10 149 -10c71 0 133 10 243 10c254 0 407 -142 407 -364
c0 -202 -180 -368 -435 -368c-104 0 -144 10 -220 10c-92 0 -108 -6 -144 -10v42c67 6 88 28 88 128v180h-90v54z" />
    <glyph glyph-name="onehalf" unicode="&#xbd;" horiz-adv-x="889" 
d="M625 712h69l-432 -728h-69zM70 628v30c45 9 113 29 150 59h22c-6 -25 -8 -69 -8 -119v-171c0 -107 14 -119 78 -119v-30c-39 2 -78 6 -117 6c-32 0 -80 -4 -113 -6v30c65 0 76 19 76 86v191c0 37 -2 54 -24 54c-19 0 -54 -8 -64 -11zM833 91l25 -7
c-10 -35 -37 -64 -44 -101c-8 5 -17 9 -28 12c-12 3 -26 5 -44 5h-142c-28 0 -50 -6 -71 -13l-5 19c180 136 235 192 235 269c0 55 -36 107 -97 107c-42 0 -76 -22 -76 -53c0 -10 2 -19 13 -23c-6 -16 -22 -22 -33 -22c-20 0 -34 20 -34 41c0 61 62 103 147 103
s164 -45 164 -131c0 -113 -120 -180 -193 -232l2 -1h132c24 0 39 13 49 27z" />
    <glyph glyph-name="plusminus" unicode="&#xb1;" horiz-adv-x="600" 
d="M262 320v136h76v-136h190v-76h-190v-136h-76v136h-190v76h190zM72 0v76h456v-76h-456z" />
    <glyph glyph-name="Thorn" unicode="&#xde;" horiz-adv-x="685" 
d="M260 517v-357c0 -100 21 -122 90 -128v-42c-54 3 -48 10 -150 10s-96 -7 -150 -10v42c69 6 90 28 90 128v392c0 100 -21 122 -90 128v42c30 0 106 -10 150 -10s120 10 150 10v-42c-66 -6 -88 -26 -89 -116c34 5 73 10 127 10c188 0 260 -96 260 -205
c0 -123 -100 -217 -230 -217c-48 0 -106 12 -132 38v42c26 -14 62 -26 90 -26c92 0 142 54 142 144c0 100 -69 176 -172 176c-28 0 -54 -2 -86 -9z" />
    <glyph glyph-name="onequarter" unicode="&#xbc;" horiz-adv-x="889" 
d="M822 165v-78c-8 12 -30 13 -45 13v-28c0 -34 -1 -49 19 -69l-3 -8c-15 3 -39 5 -58 5c-15 0 -36 -2 -49 -5l-5 8c21 20 22 35 22 69v28h-167c-21 0 -35 -6 -47 -8c0 30 14 46 29 65l132 165c31 39 60 68 83 106h50c-3 -25 -6 -49 -6 -74v-202c15 0 37 2 45 13zM565 152
h138v176h-2zM653 712h69l-432 -728h-69zM70 628v30c45 9 113 29 150 59h22c-6 -25 -8 -69 -8 -119v-171c0 -107 14 -119 78 -119v-30c-39 2 -78 6 -117 6c-32 0 -80 -4 -113 -6v30c65 0 76 19 76 86v191c0 37 -2 54 -24 54c-19 0 -54 -8 -64 -11z" />
    <glyph glyph-name="divide" unicode="&#xf7;" horiz-adv-x="600" 
d="M528 190h-456v76h456v-76zM235 409c0 36 29 65 65 65s65 -29 65 -65s-29 -65 -65 -65s-65 29 -65 65zM235 47c0 36 29 65 65 65s65 -29 65 -65s-29 -65 -65 -65s-65 29 -65 65z" />
    <glyph glyph-name="brokenbar" unicode="&#xa6;" horiz-adv-x="222" 
d="M73 675h76v-350h-76v350zM73 175h76v-350h-76v350z" />
    <glyph glyph-name="degree" unicode="&#xb0;" horiz-adv-x="400" 
d="M200 470c54 0 90 43 90 97s-36 97 -90 97s-90 -43 -90 -97s36 -97 90 -97zM200 422c-81 0 -146 64 -146 145s65 145 146 145s146 -64 146 -145s-65 -145 -146 -145z" />
    <glyph glyph-name="thorn" unicode="&#xfe;" 
d="M194 330v-254c26 -22 80 -50 115 -50c81 0 136 70 136 160c0 110 -55 214 -151 214c-55 0 -93 -39 -100 -70zM294 -200v-36c-37 2 -85 10 -140 10c-43 0 -97 -8 -132 -10v36c52 0 68 36 68 127v621c0 110 -10 150 -69 150v36c63 6 131 32 149 62h32
c-8 -28 -8 -58 -8 -122v-274c38 37 80 74 150 74c110 0 215 -98 215 -238c0 -128 -87 -254 -233 -254c-64 0 -100 10 -132 27v-97c0 -88 42 -112 100 -112z" />
    <glyph glyph-name="threequarters" unicode="&#xbe;" horiz-adv-x="889" 
d="M822 165v-78c-8 12 -30 13 -45 13v-28c0 -34 -1 -49 19 -69l-3 -8c-15 3 -39 5 -58 5c-15 0 -36 -2 -49 -5l-5 8c21 20 22 35 22 69v28h-167c-21 0 -35 -6 -47 -8c0 30 14 46 29 65l132 165c31 39 60 68 83 106h50c-3 -25 -6 -49 -6 -74v-202c15 0 37 2 45 13zM565 152
h138v176h-2zM133 491l-3 37c57 2 119 23 119 78c0 44 -38 68 -78 68c-37 0 -67 -22 -67 -48c0 -11 4 -21 11 -24c-9 -11 -18 -18 -28 -18c-19 0 -35 13 -35 35c0 71 86 93 148 93c70 0 127 -34 127 -90c0 -60 -42 -90 -91 -98v-2c54 0 121 -39 121 -106
c0 -98 -100 -144 -193 -144c-47 0 -127 12 -127 71c0 18 13 37 34 37c9 0 16 -4 24 -10c-4 -7 -6 -14 -6 -21c0 -28 48 -39 75 -39c56 0 105 34 105 84c0 69 -40 106 -109 100c-8 0 -15 -2 -27 -3zM653 712h69l-432 -728h-69z" />
    <glyph glyph-name="twosuperior" unicode="&#xb2;" horiz-adv-x="355" 
d="M319 375l25 -7c-10 -35 -37 -64 -44 -101c-16 9 -36 17 -72 17h-142c-28 0 -50 -6 -71 -13l-5 19c180 136 235 192 235 269c0 55 -36 107 -97 107c-42 0 -76 -22 -76 -53c0 -10 2 -19 13 -23c-6 -16 -22 -22 -33 -22c-20 0 -34 20 -34 41c0 61 62 103 147 103
s164 -45 164 -131c0 -113 -120 -180 -193 -232l2 -1h132c24 0 39 13 49 27z" />
    <glyph glyph-name="registered" unicode="&#xae;" horiz-adv-x="800" 
d="M224 548v20h201c66 0 121 -34 121 -103c0 -53 -32 -97 -83 -112l62 -89c26 -35 56 -71 77 -90v-12h-80c-36 22 -65 86 -125 178h-43v-110c0 -42 -1 -44 50 -50v-18h-180v18c51 6 50 8 50 50v269c0 43 1 45 -50 49zM354 544v-180h41c50 -1 71 43 71 96c0 62 -32 84 -71 84
h-41zM400 734c210 0 370 -166 370 -378s-160 -378 -370 -378s-370 166 -370 378s160 378 370 378zM400 682c-168 0 -300 -150 -300 -326s132 -326 300 -326s300 150 300 326s-132 326 -300 326z" />
    <glyph glyph-name="minus" unicode="&#x2212;" horiz-adv-x="600" 
d="M528 190h-456v76h456v-76z" />
    <glyph glyph-name="eth" unicode="&#xf0;" horiz-adv-x="574" 
d="M148 278c0 -134 62 -252 155 -252c75 0 123 66 123 152c0 134 -62 252 -155 252c-75 0 -123 -66 -123 -152zM110 768l20 28c49 -20 104 -57 159 -105l139 101l28 -38l-132 -95c116 -111 216 -267 216 -403c0 -172 -107 -274 -259 -274c-138 0 -247 98 -247 238
c0 152 107 254 259 254c19 0 52 -3 71 -10c-17 46 -52 102 -95 156l-127 -92l-28 36l125 91c-41 46 -86 87 -129 113z" />
    <glyph glyph-name="multiply" unicode="&#xd7;" horiz-adv-x="600" 
d="M354 228l174 -174l-53 -54l-175 175l-175 -175l-53 54l174 174l-174 174l53 54l175 -175l175 175l53 -54z" />
    <glyph glyph-name="threesuperior" unicode="&#xb3;" horiz-adv-x="355" 
d="M121 491l-3 37c57 2 119 23 119 78c0 44 -38 68 -78 68c-37 0 -67 -22 -67 -48c0 -11 4 -21 11 -24c-9 -11 -18 -18 -28 -18c-19 0 -35 13 -35 35c0 71 86 93 148 93c70 0 127 -34 127 -90c0 -60 -42 -90 -91 -98v-2c54 0 121 -39 121 -106c0 -98 -100 -144 -193 -144
c-47 0 -127 12 -127 71c0 18 13 37 34 37c9 0 16 -4 24 -10c-4 -7 -6 -14 -6 -21c0 -28 48 -39 75 -39c56 0 105 34 105 84c0 69 -40 106 -109 100c-8 0 -15 -2 -27 -3z" />
    <glyph glyph-name="copyright" unicode="&#xa9;" horiz-adv-x="800" 
d="M400 734c210 0 370 -166 370 -378s-160 -378 -370 -378s-370 166 -370 378s160 378 370 378zM400 682c-168 0 -300 -150 -300 -326s132 -326 300 -326s300 150 300 326s-132 326 -300 326zM564 458h-20c-8 45 -39 95 -118 95c-96 0 -136 -85 -136 -190s40 -190 136 -190
c73 0 113 42 136 95h20l-17 -78c-1 -13 -12 -15 -29 -21c-20 -7 -64 -20 -110 -20c-137 0 -236 67 -236 214s99 214 236 214c59 0 86 -10 115 -19c17 -5 23 -14 23 -23v-77z" />
    <glyph glyph-name="Aacute" unicode="&#xc1;" horiz-adv-x="759" 
d="M466 338l-106 286l-117 -286c36 -2 71 -4 107 -4c39 0 77 2 116 4zM-24 -10v42c55 0 99 54 128 122c12 27 214 458 214 496c0 20 -12 30 -36 30v42c124 0 113 36 192 36c-8 -14 -12 -32 -12 -48c0 -26 6 -54 18 -86l191 -493c29 -76 69 -99 112 -99v-42
c-58 3 -51 10 -160 10c-110 0 -103 -7 -161 -10v42c69 0 89 24 89 59c0 45 -13 55 -66 189c-39 4 -107 6 -172 6c-53 0 -74 -4 -93 -6c-46 -116 -66 -138 -66 -183c0 -31 31 -65 96 -65v-42c-49 3 -44 10 -137 10s-88 -7 -137 -10zM371 764h-52l124 135c25 27 33 43 67 43
c26 0 45 -16 45 -38c0 -21 -11 -32 -34 -46z" />
    <glyph glyph-name="Acircumflex" unicode="&#xc2;" horiz-adv-x="759" 
d="M466 338l-106 286l-117 -286c36 -2 71 -4 107 -4c39 0 77 2 116 4zM-24 -10v42c55 0 99 54 128 122c12 27 214 458 214 496c0 20 -12 30 -36 30v42c124 0 113 36 192 36c-8 -14 -12 -32 -12 -48c0 -26 6 -54 18 -86l191 -493c29 -76 69 -99 112 -99v-42
c-58 3 -51 10 -160 10c-110 0 -103 -7 -161 -10v42c69 0 89 24 89 59c0 45 -13 55 -66 189c-39 4 -107 6 -172 6c-53 0 -74 -4 -93 -6c-46 -116 -66 -138 -66 -183c0 -31 31 -65 96 -65v-42c-49 3 -44 10 -137 10s-88 -7 -137 -10zM357 936h79l125 -172h-51l-113 101
l-115 -101h-49z" />
    <glyph glyph-name="Adieresis" unicode="&#xc4;" horiz-adv-x="759" 
d="M466 338l-106 286l-117 -286c36 -2 71 -4 107 -4c39 0 77 2 116 4zM-24 -10v42c55 0 99 54 128 122c12 27 214 458 214 496c0 20 -12 30 -36 30v42c124 0 113 36 192 36c-8 -14 -12 -32 -12 -48c0 -26 6 -54 18 -86l191 -493c29 -76 69 -99 112 -99v-42
c-58 3 -51 10 -160 10c-110 0 -103 -7 -161 -10v42c69 0 89 24 89 59c0 45 -13 55 -66 189c-39 4 -107 6 -172 6c-53 0 -74 -4 -93 -6c-46 -116 -66 -138 -66 -183c0 -31 31 -65 96 -65v-42c-49 3 -44 10 -137 10s-88 -7 -137 -10zM363 848c0 -42 -48 -74 -81 -74
c-27 0 -43 18 -43 41c0 42 47 73 80 73c27 0 44 -17 44 -40zM555 848c0 -42 -48 -74 -81 -74c-27 0 -43 18 -43 41c0 42 47 73 80 73c27 0 44 -17 44 -40z" />
    <glyph glyph-name="Agrave" unicode="&#xc0;" horiz-adv-x="759" 
d="M466 338l-106 286l-117 -286c36 -2 71 -4 107 -4c39 0 77 2 116 4zM-24 -10v42c55 0 99 54 128 122c12 27 214 458 214 496c0 20 -12 30 -36 30v42c124 0 113 36 192 36c-8 -14 -12 -32 -12 -48c0 -26 6 -54 18 -86l191 -493c29 -76 69 -99 112 -99v-42
c-58 3 -51 10 -160 10c-110 0 -103 -7 -161 -10v42c69 0 89 24 89 59c0 45 -13 55 -66 189c-39 4 -107 6 -172 6c-53 0 -74 -4 -93 -6c-46 -116 -66 -138 -66 -183c0 -31 31 -65 96 -65v-42c-49 3 -44 10 -137 10s-88 -7 -137 -10zM475 764h-52l-150 94
c-23 14 -34 25 -34 46c0 22 19 38 45 38c34 0 42 -16 67 -43z" />
    <glyph glyph-name="Aring" unicode="&#xc5;" horiz-adv-x="759" 
d="M466 338l-106 286l-117 -286c36 -2 71 -4 107 -4c39 0 77 2 116 4zM-24 -10v42c55 0 99 54 128 122c12 27 214 458 214 496c0 20 -12 30 -36 30v42c124 0 113 36 192 36c-8 -14 -12 -32 -12 -48c0 -26 6 -54 18 -86l191 -493c29 -76 69 -99 112 -99v-42
c-58 3 -51 10 -160 10c-110 0 -103 -7 -161 -10v42c69 0 89 24 89 59c0 45 -13 55 -66 189c-39 4 -107 6 -172 6c-53 0 -74 -4 -93 -6c-46 -116 -66 -138 -66 -183c0 -31 31 -65 96 -65v-42c-49 3 -44 10 -137 10s-88 -7 -137 -10zM397 926c-32 0 -56 -22 -56 -56
s24 -56 56 -56s56 22 56 56s-24 56 -56 56zM397 976c58 0 106 -46 106 -106s-48 -106 -106 -106s-106 46 -106 106s48 106 106 106z" />
    <glyph glyph-name="Atilde" unicode="&#xc3;" horiz-adv-x="759" 
d="M466 338l-106 286l-117 -286c36 -2 71 -4 107 -4c39 0 77 2 116 4zM-24 -10v42c55 0 99 54 128 122c12 27 214 458 214 496c0 20 -12 30 -36 30v42c124 0 113 36 192 36c-8 -14 -12 -32 -12 -48c0 -26 6 -54 18 -86l191 -493c29 -76 69 -99 112 -99v-42
c-58 3 -51 10 -160 10c-110 0 -103 -7 -161 -10v42c69 0 89 24 89 59c0 45 -13 55 -66 189c-39 4 -107 6 -172 6c-53 0 -74 -4 -93 -6c-46 -116 -66 -138 -66 -183c0 -31 31 -65 96 -65v-42c-49 3 -44 10 -137 10s-88 -7 -137 -10zM530 902h37c-13 -60 -45 -116 -115 -116
c-31 0 -58 11 -82 23c-23 12 -44 24 -65 24c-30 0 -44 -22 -54 -47h-36c9 59 49 116 114 116c30 0 56 -12 80 -24c25 -12 48 -24 71 -24c28 0 43 26 50 48z" />
    <glyph glyph-name="Ccedilla" unicode="&#xc7;" horiz-adv-x="833" 
d="M710 502h-36c0 154 -96 184 -214 184c-177 0 -294 -134 -294 -330s122 -330 302 -330c128 0 214 48 256 144h36c-10 -58 -50 -124 -50 -192c-12 8 -24 14 -36 17c-11 4 -23 5 -34 5c-26 0 -49 -5 -81 -11c-24 -4 -53 -8 -94 -9l-21 -44c9 1 20 6 34 6c27 0 82 -15 82 -76
c0 -66 -75 -82 -124 -82c-38 0 -64 3 -92 16l16 49c20 -9 41 -17 63 -17c35 0 55 14 55 32c0 24 -22 36 -46 36c-10 0 -20 -2 -29 -4l-12 8l33 74c-256 3 -388 162 -388 364c0 218 162 392 400 392c77 0 125 -9 161 -19c35 -9 57 -19 80 -19c29 0 47 6 65 16
c-14 -56 -24 -118 -32 -210z" />
    <glyph glyph-name="Eacute" unicode="&#xc9;" horiz-adv-x="722" 
d="M140 160v392c0 100 -21 122 -90 128v42h2c45 0 84 -2 136 -5c52 -2 117 -5 216 -5c148 0 190 0 246 22c-9 -32 -3 -142 -12 -171h-30c0 77 -42 101 -212 101c-56 0 -100 -4 -136 -8v-266c47 -2 78 -4 116 -4c126 0 156 30 158 92h36c-4 -30 -8 -62 -8 -116s4 -86 8 -116
h-36c-2 62 -32 92 -158 92c-38 0 -69 -2 -116 -4v-176c0 -98 36 -110 132 -110c152 0 254 36 254 141h36c0 -79 -22 -97 -22 -211c-26 11 -43 17 -94 19c-50 3 -134 3 -292 3c-97 0 -150 -2 -181 -5c-30 -2 -37 -5 -41 -5h-2v42c69 6 90 28 90 128zM352 764h-52l124 135
c25 27 33 43 67 43c26 0 45 -16 45 -38c0 -21 -11 -32 -34 -46z" />
    <glyph glyph-name="Ecircumflex" unicode="&#xca;" horiz-adv-x="722" 
d="M140 160v392c0 100 -21 122 -90 128v42h2c45 0 84 -2 136 -5c52 -2 117 -5 216 -5c148 0 190 0 246 22c-9 -32 -3 -142 -12 -171h-30c0 77 -42 101 -212 101c-56 0 -100 -4 -136 -8v-266c47 -2 78 -4 116 -4c126 0 156 30 158 92h36c-4 -30 -8 -62 -8 -116s4 -86 8 -116
h-36c-2 62 -32 92 -158 92c-38 0 -69 -2 -116 -4v-176c0 -98 36 -110 132 -110c152 0 254 36 254 141h36c0 -79 -22 -97 -22 -211c-26 11 -43 17 -94 19c-50 3 -134 3 -292 3c-97 0 -150 -2 -181 -5c-30 -2 -37 -5 -41 -5h-2v42c69 6 90 28 90 128zM338 936h79l125 -172h-51
l-113 101l-115 -101h-49z" />
    <glyph glyph-name="Edieresis" unicode="&#xcb;" horiz-adv-x="722" 
d="M140 160v392c0 100 -21 122 -90 128v42h2c45 0 84 -2 136 -5c52 -2 117 -5 216 -5c148 0 190 0 246 22c-9 -32 -3 -142 -12 -171h-30c0 77 -42 101 -212 101c-56 0 -100 -4 -136 -8v-266c47 -2 78 -4 116 -4c126 0 156 30 158 92h36c-4 -30 -8 -62 -8 -116s4 -86 8 -116
h-36c-2 62 -32 92 -158 92c-38 0 -69 -2 -116 -4v-176c0 -98 36 -110 132 -110c152 0 254 36 254 141h36c0 -79 -22 -97 -22 -211c-26 11 -43 17 -94 19c-50 3 -134 3 -292 3c-97 0 -150 -2 -181 -5c-30 -2 -37 -5 -41 -5h-2v42c69 6 90 28 90 128zM344 848
c0 -42 -48 -74 -81 -74c-27 0 -43 18 -43 41c0 42 47 73 80 73c27 0 44 -17 44 -40zM536 848c0 -42 -48 -74 -81 -74c-27 0 -43 18 -43 41c0 42 47 73 80 73c27 0 44 -17 44 -40z" />
    <glyph glyph-name="Egrave" unicode="&#xc8;" horiz-adv-x="722" 
d="M140 160v392c0 100 -21 122 -90 128v42h2c45 0 84 -2 136 -5c52 -2 117 -5 216 -5c148 0 190 0 246 22c-9 -32 -3 -142 -12 -171h-30c0 77 -42 101 -212 101c-56 0 -100 -4 -136 -8v-266c47 -2 78 -4 116 -4c126 0 156 30 158 92h36c-4 -30 -8 -62 -8 -116s4 -86 8 -116
h-36c-2 62 -32 92 -158 92c-38 0 -69 -2 -116 -4v-176c0 -98 36 -110 132 -110c152 0 254 36 254 141h36c0 -79 -22 -97 -22 -211c-26 11 -43 17 -94 19c-50 3 -134 3 -292 3c-97 0 -150 -2 -181 -5c-30 -2 -37 -5 -41 -5h-2v42c69 6 90 28 90 128zM456 764h-52l-150 94
c-23 14 -34 25 -34 46c0 22 19 38 45 38c34 0 42 -16 67 -43z" />
    <glyph glyph-name="Iacute" unicode="&#xcd;" horiz-adv-x="407" 
d="M143 160v392c0 100 -21 122 -90 128v42c30 0 106 -10 150 -10s120 10 150 10v-42c-69 -6 -90 -28 -90 -128v-392c0 -100 21 -122 90 -128v-42c-54 3 -48 10 -150 10s-96 -7 -150 -10v42c69 6 90 28 90 128zM184 764h-52l124 135c25 27 33 43 67 43c26 0 45 -16 45 -38
c0 -21 -11 -32 -34 -46z" />
    <glyph glyph-name="Icircumflex" unicode="&#xce;" horiz-adv-x="407" 
d="M143 160v392c0 100 -21 122 -90 128v42c30 0 106 -10 150 -10s120 10 150 10v-42c-69 -6 -90 -28 -90 -128v-392c0 -100 21 -122 90 -128v-42c-54 3 -48 10 -150 10s-96 -7 -150 -10v42c69 6 90 28 90 128zM170 936h79l125 -172h-51l-113 101l-115 -101h-49z" />
    <glyph glyph-name="Idieresis" unicode="&#xcf;" horiz-adv-x="407" 
d="M143 160v392c0 100 -21 122 -90 128v42c30 0 106 -10 150 -10s120 10 150 10v-42c-69 -6 -90 -28 -90 -128v-392c0 -100 21 -122 90 -128v-42c-54 3 -48 10 -150 10s-96 -7 -150 -10v42c69 6 90 28 90 128zM176 848c0 -42 -48 -74 -81 -74c-27 0 -43 18 -43 41
c0 42 47 73 80 73c27 0 44 -17 44 -40zM368 848c0 -42 -48 -74 -81 -74c-27 0 -43 18 -43 41c0 42 47 73 80 73c27 0 44 -17 44 -40z" />
    <glyph glyph-name="Igrave" unicode="&#xcc;" horiz-adv-x="407" 
d="M143 160v392c0 100 -21 122 -90 128v42c30 0 106 -10 150 -10s120 10 150 10v-42c-69 -6 -90 -28 -90 -128v-392c0 -100 21 -122 90 -128v-42c-54 3 -48 10 -150 10s-96 -7 -150 -10v42c69 6 90 28 90 128zM288 764h-52l-150 94c-23 14 -34 25 -34 46c0 22 19 38 45 38
c34 0 42 -16 67 -43z" />
    <glyph glyph-name="Ntilde" unicode="&#xd1;" horiz-adv-x="889" 
d="M36 680v42c29 -4 81 -10 122 -10c24 0 50 6 69 10c7 -32 33 -60 62 -90l416 -432v312c0 136 -38 168 -109 168v42c25 0 89 -10 127 -10c37 0 101 10 130 10v-42c-66 0 -100 -32 -100 -168v-380c0 -70 4 -108 4 -154h-26l-538 578v-356c0 -136 34 -168 120 -168v-42
c-50 3 -44 10 -138 10c-95 0 -89 -7 -139 -10v42c71 0 109 32 109 168v329c0 117 -60 151 -109 151zM590 902h37c-13 -60 -45 -116 -115 -116c-31 0 -58 11 -82 23c-23 12 -44 24 -65 24c-30 0 -44 -22 -54 -47h-36c9 59 49 116 114 116c30 0 56 -12 80 -24
c25 -12 48 -24 71 -24c28 0 43 26 50 48z" />
    <glyph glyph-name="Oacute" unicode="&#xd3;" horiz-adv-x="889" 
d="M715 308c0 196 -97 378 -299 378c-145 0 -242 -130 -242 -282c0 -196 97 -378 299 -378c145 0 242 130 242 282zM44 340c0 236 175 394 401 394c228 0 400 -146 400 -374c0 -204 -155 -382 -423 -382c-212 0 -378 150 -378 362zM419 764h-52l124 135c25 27 33 43 67 43
c26 0 45 -16 45 -38c0 -21 -11 -32 -34 -46z" />
    <glyph glyph-name="Ocircumflex" unicode="&#xd4;" horiz-adv-x="889" 
d="M715 308c0 196 -97 378 -299 378c-145 0 -242 -130 -242 -282c0 -196 97 -378 299 -378c145 0 242 130 242 282zM44 340c0 236 175 394 401 394c228 0 400 -146 400 -374c0 -204 -155 -382 -423 -382c-212 0 -378 150 -378 362zM405 936h79l125 -172h-51l-113 101
l-115 -101h-49z" />
    <glyph glyph-name="Odieresis" unicode="&#xd6;" horiz-adv-x="889" 
d="M715 308c0 196 -97 378 -299 378c-145 0 -242 -130 -242 -282c0 -196 97 -378 299 -378c145 0 242 130 242 282zM44 340c0 236 175 394 401 394c228 0 400 -146 400 -374c0 -204 -155 -382 -423 -382c-212 0 -378 150 -378 362zM411 848c0 -42 -48 -74 -81 -74
c-27 0 -43 18 -43 41c0 42 47 73 80 73c27 0 44 -17 44 -40zM603 848c0 -42 -48 -74 -81 -74c-27 0 -43 18 -43 41c0 42 47 73 80 73c27 0 44 -17 44 -40z" />
    <glyph glyph-name="Ograve" unicode="&#xd2;" horiz-adv-x="889" 
d="M715 308c0 196 -97 378 -299 378c-145 0 -242 -130 -242 -282c0 -196 97 -378 299 -378c145 0 242 130 242 282zM44 340c0 236 175 394 401 394c228 0 400 -146 400 -374c0 -204 -155 -382 -423 -382c-212 0 -378 150 -378 362zM523 764h-52l-150 94
c-23 14 -34 25 -34 46c0 22 19 38 45 38c34 0 42 -16 67 -43z" />
    <glyph glyph-name="Otilde" unicode="&#xd5;" horiz-adv-x="889" 
d="M715 308c0 196 -97 378 -299 378c-145 0 -242 -130 -242 -282c0 -196 97 -378 299 -378c145 0 242 130 242 282zM44 340c0 236 175 394 401 394c228 0 400 -146 400 -374c0 -204 -155 -382 -423 -382c-212 0 -378 150 -378 362zM578 902h37c-13 -60 -45 -116 -115 -116
c-31 0 -58 11 -82 23c-23 12 -44 24 -65 24c-30 0 -44 -22 -54 -47h-36c9 59 49 116 114 116c30 0 56 -12 80 -24c25 -12 48 -24 71 -24c28 0 43 26 50 48z" />
    <glyph glyph-name="Scaron" unicode="&#x160;" horiz-adv-x="611" 
d="M506 548h-36c0 98 -62 144 -166 144c-80 0 -128 -54 -128 -106c0 -160 372 -154 372 -372c0 -118 -88 -236 -270 -236c-37 0 -62 5 -86 9c-23 5 -44 9 -72 9c-26 0 -50 -6 -78 -13c34 51 25 173 32 225h36v-16c0 -80 51 -166 173 -166c76 0 163 42 163 120
c0 184 -364 154 -364 388c0 124 88 200 220 200c51 0 80 -5 100 -10s32 -10 50 -10c20 0 32 4 42 8c11 4 20 8 33 8c-22 -45 -9 -131 -21 -182zM392 764h-79l-125 172h51l113 -101l115 101h49z" />
    <glyph glyph-name="Uacute" unicode="&#xda;" horiz-adv-x="870" 
d="M15 680v42c33 0 116 -10 164 -10s131 10 164 10v-42c-78 0 -98 -40 -98 -126v-236c0 -188 100 -274 231 -274c148 0 223 110 223 302v166c0 136 -38 168 -129 168v42c29 0 101 -10 143 -10c41 0 114 10 142 10v-42c-74 0 -108 -32 -108 -168v-146
c0 -218 -67 -388 -321 -388c-184 0 -301 114 -301 320v256c0 98 -20 126 -110 126zM432 764h-52l124 135c25 27 33 43 67 43c26 0 45 -16 45 -38c0 -21 -11 -32 -34 -46z" />
    <glyph glyph-name="Ucircumflex" unicode="&#xdb;" horiz-adv-x="870" 
d="M15 680v42c33 0 116 -10 164 -10s131 10 164 10v-42c-78 0 -98 -40 -98 -126v-236c0 -188 100 -274 231 -274c148 0 223 110 223 302v166c0 136 -38 168 -129 168v42c29 0 101 -10 143 -10c41 0 114 10 142 10v-42c-74 0 -108 -32 -108 -168v-146
c0 -218 -67 -388 -321 -388c-184 0 -301 114 -301 320v256c0 98 -20 126 -110 126zM418 936h79l125 -172h-51l-113 101l-115 -101h-49z" />
    <glyph glyph-name="Udieresis" unicode="&#xdc;" horiz-adv-x="870" 
d="M15 680v42c33 0 116 -10 164 -10s131 10 164 10v-42c-78 0 -98 -40 -98 -126v-236c0 -188 100 -274 231 -274c148 0 223 110 223 302v166c0 136 -38 168 -129 168v42c29 0 101 -10 143 -10c41 0 114 10 142 10v-42c-74 0 -108 -32 -108 -168v-146
c0 -218 -67 -388 -321 -388c-184 0 -301 114 -301 320v256c0 98 -20 126 -110 126zM424 848c0 -42 -48 -74 -81 -74c-27 0 -43 18 -43 41c0 42 47 73 80 73c27 0 44 -17 44 -40zM616 848c0 -42 -48 -74 -81 -74c-27 0 -43 18 -43 41c0 42 47 73 80 73c27 0 44 -17 44 -40z
" />
    <glyph glyph-name="Ugrave" unicode="&#xd9;" horiz-adv-x="870" 
d="M15 680v42c33 0 116 -10 164 -10s131 10 164 10v-42c-78 0 -98 -40 -98 -126v-236c0 -188 100 -274 231 -274c148 0 223 110 223 302v166c0 136 -38 168 -129 168v42c29 0 101 -10 143 -10c41 0 114 10 142 10v-42c-74 0 -108 -32 -108 -168v-146
c0 -218 -67 -388 -321 -388c-184 0 -301 114 -301 320v256c0 98 -20 126 -110 126zM536 764h-52l-150 94c-23 14 -34 25 -34 46c0 22 19 38 45 38c34 0 42 -16 67 -43z" />
    <glyph glyph-name="Yacute" unicode="&#xdd;" horiz-adv-x="667" 
d="M690 722v-42c-45 0 -85 -27 -126 -93l-163 -260v-169c0 -98 20 -126 114 -126v-42c-62 3 -55 10 -171 10s-109 -7 -171 -10v42c88 0 108 28 108 126v133l-152 277c-50 92 -85 112 -153 112v42c32 0 114 -10 162 -10c47 0 129 10 161 10v-42c-46 0 -66 -12 -66 -36
c0 -28 27 -72 143 -269c136 213 147 219 147 264c0 25 -15 41 -78 41v42c25 0 87 -10 123 -10c35 0 98 10 122 10zM354 764h-52l124 135c25 27 33 43 67 43c26 0 45 -16 45 -38c0 -21 -11 -32 -34 -46z" />
    <glyph glyph-name="Ydieresis" unicode="&#x178;" horiz-adv-x="667" 
d="M690 722v-42c-45 0 -85 -27 -126 -93l-163 -260v-169c0 -98 20 -126 114 -126v-42c-62 3 -55 10 -171 10s-109 -7 -171 -10v42c88 0 108 28 108 126v133l-152 277c-50 92 -85 112 -153 112v42c32 0 114 -10 162 -10c47 0 129 10 161 10v-42c-46 0 -66 -12 -66 -36
c0 -28 27 -72 143 -269c136 213 147 219 147 264c0 25 -15 41 -78 41v42c25 0 87 -10 123 -10c35 0 98 10 122 10zM346 848c0 -42 -48 -74 -81 -74c-27 0 -43 18 -43 41c0 42 47 73 80 73c27 0 44 -17 44 -40zM538 848c0 -42 -48 -74 -81 -74c-27 0 -43 18 -43 41
c0 42 47 73 80 73c27 0 44 -17 44 -40z" />
    <glyph glyph-name="Zcaron" unicode="&#x17d;" horiz-adv-x="704" 
d="M185 48h269c116 0 180 45 188 149h34c2 -10 2 -20 2 -30c0 -59 -28 -118 -28 -177c0 -6 2 -14 2 -22c-63 32 -85 32 -348 32c-138 0 -211 -2 -250 -5c-40 -2 -46 -5 -50 -5h-2v40c62 52 117 129 168 199l316 435h-246c-100 0 -142 -30 -142 -114h-34c0 8 -2 16 -2 24
c0 78 18 96 18 135c0 20 -4 32 -4 45c46 -16 37 -42 173 -42c162 0 258 3 318 5c61 3 86 5 106 5h2v-28c-55 -50 -103 -109 -147 -169zM438 764h-79l-125 172h51l113 -101l115 101h49z" />
    <glyph glyph-name="aacute" unicode="&#xe1;" horiz-adv-x="519" 
d="M320 188v44c-62 -10 -178 -45 -178 -124c0 -41 25 -64 65 -64c71 0 113 62 113 144zM486 74l16 -24c-24 -36 -78 -68 -122 -68c-38 0 -59 35 -66 69c-43 -40 -114 -69 -174 -69c-58 0 -112 32 -112 96c0 124 194 184 292 198v48c0 63 -40 88 -82 88
c-68 0 -108 -28 -108 -55c0 -13 5 -23 11 -32l-25 -21c-18 22 -36 50 -54 66c55 61 137 104 219 104c102 0 143 -59 143 -157c0 -69 -12 -139 -12 -208c0 -37 12 -57 32 -57c16 0 32 12 42 22zM234 522h-52l124 135c25 27 33 43 67 43c26 0 45 -16 45 -38
c0 -21 -11 -32 -34 -46z" />
    <glyph glyph-name="acircumflex" unicode="&#xe2;" horiz-adv-x="519" 
d="M320 188v44c-62 -10 -178 -45 -178 -124c0 -41 25 -64 65 -64c71 0 113 62 113 144zM486 74l16 -24c-24 -36 -78 -68 -122 -68c-38 0 -59 35 -66 69c-43 -40 -114 -69 -174 -69c-58 0 -112 32 -112 96c0 124 194 184 292 198v48c0 63 -40 88 -82 88
c-68 0 -108 -28 -108 -55c0 -13 5 -23 11 -32l-25 -21c-18 22 -36 50 -54 66c55 61 137 104 219 104c102 0 143 -59 143 -157c0 -69 -12 -139 -12 -208c0 -37 12 -57 32 -57c16 0 32 12 42 22zM220 694h79l125 -172h-51l-113 101l-115 -101h-49z" />
    <glyph glyph-name="adieresis" unicode="&#xe4;" horiz-adv-x="519" 
d="M320 188v44c-62 -10 -178 -45 -178 -124c0 -41 25 -64 65 -64c71 0 113 62 113 144zM486 74l16 -24c-24 -36 -78 -68 -122 -68c-38 0 -59 35 -66 69c-43 -40 -114 -69 -174 -69c-58 0 -112 32 -112 96c0 124 194 184 292 198v48c0 63 -40 88 -82 88
c-68 0 -108 -28 -108 -55c0 -13 5 -23 11 -32l-25 -21c-18 22 -36 50 -54 66c55 61 137 104 219 104c102 0 143 -59 143 -157c0 -69 -12 -139 -12 -208c0 -37 12 -57 32 -57c16 0 32 12 42 22zM226 606c0 -42 -48 -74 -81 -74c-27 0 -43 18 -43 41c0 42 47 73 80 73
c27 0 44 -17 44 -40zM418 606c0 -42 -48 -74 -81 -74c-27 0 -43 18 -43 41c0 42 47 73 80 73c27 0 44 -17 44 -40z" />
    <glyph glyph-name="agrave" unicode="&#xe0;" horiz-adv-x="519" 
d="M320 188v44c-62 -10 -178 -45 -178 -124c0 -41 25 -64 65 -64c71 0 113 62 113 144zM486 74l16 -24c-24 -36 -78 -68 -122 -68c-38 0 -59 35 -66 69c-43 -40 -114 -69 -174 -69c-58 0 -112 32 -112 96c0 124 194 184 292 198v48c0 63 -40 88 -82 88
c-68 0 -108 -28 -108 -55c0 -13 5 -23 11 -32l-25 -21c-18 22 -36 50 -54 66c55 61 137 104 219 104c102 0 143 -59 143 -157c0 -69 -12 -139 -12 -208c0 -37 12 -57 32 -57c16 0 32 12 42 22zM338 522h-52l-150 94c-23 14 -34 25 -34 46c0 22 19 38 45 38
c34 0 42 -16 67 -43z" />
    <glyph glyph-name="aring" unicode="&#xe5;" horiz-adv-x="519" 
d="M320 188v44c-62 -10 -178 -45 -178 -124c0 -41 25 -64 65 -64c71 0 113 62 113 144zM486 74l16 -24c-24 -36 -78 -68 -122 -68c-38 0 -59 35 -66 69c-43 -40 -114 -69 -174 -69c-58 0 -112 32 -112 96c0 124 194 184 292 198v48c0 63 -40 88 -82 88
c-68 0 -108 -28 -108 -55c0 -13 5 -23 11 -32l-25 -21c-18 22 -36 50 -54 66c55 61 137 104 219 104c102 0 143 -59 143 -157c0 -69 -12 -139 -12 -208c0 -37 12 -57 32 -57c16 0 32 12 42 22zM260 684c-32 0 -56 -22 -56 -56s24 -56 56 -56s56 22 56 56s-24 56 -56 56z
M260 734c58 0 106 -46 106 -106s-48 -106 -106 -106s-106 46 -106 106s48 106 106 106z" />
    <glyph glyph-name="atilde" unicode="&#xe3;" horiz-adv-x="519" 
d="M320 188v44c-62 -10 -178 -45 -178 -124c0 -41 25 -64 65 -64c71 0 113 62 113 144zM486 74l16 -24c-24 -36 -78 -68 -122 -68c-38 0 -59 35 -66 69c-43 -40 -114 -69 -174 -69c-58 0 -112 32 -112 96c0 124 194 184 292 198v48c0 63 -40 88 -82 88
c-68 0 -108 -28 -108 -55c0 -13 5 -23 11 -32l-25 -21c-18 22 -36 50 -54 66c55 61 137 104 219 104c102 0 143 -59 143 -157c0 -69 -12 -139 -12 -208c0 -37 12 -57 32 -57c16 0 32 12 42 22zM393 660h37c-13 -60 -45 -116 -115 -116c-31 0 -58 11 -82 23
c-23 12 -44 24 -65 24c-30 0 -44 -22 -54 -47h-36c9 59 49 116 114 116c30 0 56 -12 80 -24c25 -12 48 -24 71 -24c28 0 43 26 50 48z" />
    <glyph glyph-name="ccedilla" unicode="&#xe7;" horiz-adv-x="500" 
d="M454 129l23 -25c-51 -74 -119 -120 -218 -121l-23 -47c9 1 20 6 34 6c27 0 82 -15 82 -76c0 -66 -75 -82 -124 -82c-38 0 -64 3 -92 16l16 49c20 -9 41 -17 63 -17c35 0 55 14 55 32c0 24 -22 36 -46 36c-10 0 -20 -2 -29 -4l-12 8l36 81c-103 14 -185 97 -185 209
c0 158 116 280 271 280c49 0 123 -17 123 -71c0 -29 -14 -49 -42 -49c-48 0 -67 70 -118 70c-83 0 -146 -72 -146 -166c0 -100 90 -192 200 -192c62 0 99 23 132 63z" />
    <glyph glyph-name="eacute" unicode="&#xe9;" horiz-adv-x="519" 
d="M468 262h-330v-36c0 -76 68 -160 176 -160c50 0 104 30 140 75l25 -19c-45 -84 -111 -140 -212 -140c-143 0 -233 94 -233 226c0 143 102 266 255 266c129 0 173 -90 179 -212zM140 306h224c0 68 -38 118 -104 118c-68 0 -112 -63 -120 -118zM240 522h-52l124 135
c25 27 33 43 67 43c26 0 45 -16 45 -38c0 -21 -11 -32 -34 -46z" />
    <glyph glyph-name="ecircumflex" unicode="&#xea;" horiz-adv-x="519" 
d="M468 262h-330v-36c0 -76 68 -160 176 -160c50 0 104 30 140 75l25 -19c-45 -84 -111 -140 -212 -140c-143 0 -233 94 -233 226c0 143 102 266 255 266c129 0 173 -90 179 -212zM140 306h224c0 68 -38 118 -104 118c-68 0 -112 -63 -120 -118zM226 694h79l125 -172h-51
l-113 101l-115 -101h-49z" />
    <glyph glyph-name="edieresis" unicode="&#xeb;" horiz-adv-x="519" 
d="M468 262h-330v-36c0 -76 68 -160 176 -160c50 0 104 30 140 75l25 -19c-45 -84 -111 -140 -212 -140c-143 0 -233 94 -233 226c0 143 102 266 255 266c129 0 173 -90 179 -212zM140 306h224c0 68 -38 118 -104 118c-68 0 -112 -63 -120 -118zM232 606
c0 -42 -48 -74 -81 -74c-27 0 -43 18 -43 41c0 42 47 73 80 73c27 0 44 -17 44 -40zM424 606c0 -42 -48 -74 -81 -74c-27 0 -43 18 -43 41c0 42 47 73 80 73c27 0 44 -17 44 -40z" />
    <glyph glyph-name="egrave" unicode="&#xe8;" horiz-adv-x="519" 
d="M468 262h-330v-36c0 -76 68 -160 176 -160c50 0 104 30 140 75l25 -19c-45 -84 -111 -140 -212 -140c-143 0 -233 94 -233 226c0 143 102 266 255 266c129 0 173 -90 179 -212zM140 306h224c0 68 -38 118 -104 118c-68 0 -112 -63 -120 -118zM344 522h-52l-150 94
c-23 14 -34 25 -34 46c0 22 19 38 45 38c34 0 42 -16 67 -43z" />
    <glyph glyph-name="iacute" unicode="&#xed;" horiz-adv-x="296" 
d="M38 -8v36c43 2 61 16 61 84v126c0 134 -10 150 -61 150v36c41 0 113 20 141 50h32c-8 -28 -8 -58 -8 -122v-240c0 -68 28 -82 77 -84v-36c-41 2 -81 8 -122 8c-40 0 -80 -6 -120 -8zM128 522h-52l124 135c25 27 33 43 67 43c26 0 45 -16 45 -38c0 -21 -11 -32 -34 -46z
" />
    <glyph glyph-name="icircumflex" unicode="&#xee;" horiz-adv-x="296" 
d="M38 -8v36c43 2 61 16 61 84v126c0 134 -10 150 -61 150v36c41 0 113 20 141 50h32c-8 -28 -8 -58 -8 -122v-240c0 -68 28 -82 77 -84v-36c-41 2 -81 8 -122 8c-40 0 -80 -6 -120 -8zM114 694h79l125 -172h-51l-113 101l-115 -101h-49z" />
    <glyph glyph-name="idieresis" unicode="&#xef;" horiz-adv-x="296" 
d="M38 -8v36c43 2 61 16 61 84v126c0 134 -10 150 -61 150v36c41 0 113 20 141 50h32c-8 -28 -8 -58 -8 -122v-240c0 -68 28 -82 77 -84v-36c-41 2 -81 8 -122 8c-40 0 -80 -6 -120 -8zM120 606c0 -42 -48 -74 -81 -74c-27 0 -43 18 -43 41c0 42 47 73 80 73
c27 0 44 -17 44 -40zM312 606c0 -42 -48 -74 -81 -74c-27 0 -43 18 -43 41c0 42 47 73 80 73c27 0 44 -17 44 -40z" />
    <glyph glyph-name="igrave" unicode="&#xec;" horiz-adv-x="296" 
d="M38 -8v36c43 2 61 16 61 84v126c0 134 -10 150 -61 150v36c41 0 113 20 141 50h32c-8 -28 -8 -58 -8 -122v-240c0 -68 28 -82 77 -84v-36c-41 2 -81 8 -122 8c-40 0 -80 -6 -120 -8zM232 522h-52l-150 94c-23 14 -34 25 -34 46c0 22 19 38 45 38c34 0 42 -16 67 -43z" />
    <glyph glyph-name="ntilde" unicode="&#xf1;" 
d="M201 346v-234c0 -68 26 -78 69 -84v-36c-41 2 -81 8 -122 8c-40 0 -80 -6 -120 -8v36c43 2 69 16 69 84v126c0 134 -18 150 -69 150v36c41 0 113 20 145 50h32c-2 -17 -4 -30 -4 -72c55 49 108 72 155 72c108 0 152 -86 152 -188v-174c0 -68 26 -78 69 -84v-36
c-41 2 -81 8 -122 8c-40 0 -80 -6 -120 -8v36c43 2 69 16 69 84v140c0 108 -42 146 -107 146c-23 0 -60 -12 -96 -52zM430 660h37c-13 -60 -45 -116 -115 -116c-31 0 -58 11 -82 23c-23 12 -44 24 -65 24c-30 0 -44 -22 -54 -47h-36c9 59 49 116 114 116c30 0 56 -12 80 -24
c25 -12 48 -24 71 -24c28 0 43 26 50 48z" />
    <glyph glyph-name="oacute" unicode="&#xf3;" horiz-adv-x="574" 
d="M426 178c0 134 -62 252 -155 252c-75 0 -123 -66 -123 -152c0 -134 62 -252 155 -252c75 0 123 66 123 152zM540 236c0 -152 -107 -254 -259 -254c-138 0 -247 98 -247 238c0 152 107 254 259 254c138 0 247 -98 247 -238zM261 522h-52l124 135c25 27 33 43 67 43
c26 0 45 -16 45 -38c0 -21 -11 -32 -34 -46z" />
    <glyph glyph-name="ocircumflex" unicode="&#xf4;" horiz-adv-x="574" 
d="M426 178c0 134 -62 252 -155 252c-75 0 -123 -66 -123 -152c0 -134 62 -252 155 -252c75 0 123 66 123 152zM540 236c0 -152 -107 -254 -259 -254c-138 0 -247 98 -247 238c0 152 107 254 259 254c138 0 247 -98 247 -238zM247 694h79l125 -172h-51l-113 101l-115 -101
h-49z" />
    <glyph glyph-name="odieresis" unicode="&#xf6;" horiz-adv-x="574" 
d="M426 178c0 134 -62 252 -155 252c-75 0 -123 -66 -123 -152c0 -134 62 -252 155 -252c75 0 123 66 123 152zM540 236c0 -152 -107 -254 -259 -254c-138 0 -247 98 -247 238c0 152 107 254 259 254c138 0 247 -98 247 -238zM253 606c0 -42 -48 -74 -81 -74
c-27 0 -43 18 -43 41c0 42 47 73 80 73c27 0 44 -17 44 -40zM445 606c0 -42 -48 -74 -81 -74c-27 0 -43 18 -43 41c0 42 47 73 80 73c27 0 44 -17 44 -40z" />
    <glyph glyph-name="ograve" unicode="&#xf2;" horiz-adv-x="574" 
d="M426 178c0 134 -62 252 -155 252c-75 0 -123 -66 -123 -152c0 -134 62 -252 155 -252c75 0 123 66 123 152zM540 236c0 -152 -107 -254 -259 -254c-138 0 -247 98 -247 238c0 152 107 254 259 254c138 0 247 -98 247 -238zM365 522h-52l-150 94c-23 14 -34 25 -34 46
c0 22 19 38 45 38c34 0 42 -16 67 -43z" />
    <glyph glyph-name="otilde" unicode="&#xf5;" horiz-adv-x="574" 
d="M426 178c0 134 -62 252 -155 252c-75 0 -123 -66 -123 -152c0 -134 62 -252 155 -252c75 0 123 66 123 152zM540 236c0 -152 -107 -254 -259 -254c-138 0 -247 98 -247 238c0 152 107 254 259 254c138 0 247 -98 247 -238zM420 660h37c-13 -60 -45 -116 -115 -116
c-31 0 -58 11 -82 23c-23 12 -44 24 -65 24c-30 0 -44 -22 -54 -47h-36c9 59 49 116 114 116c30 0 56 -12 80 -24c25 -12 48 -24 71 -24c28 0 43 26 50 48z" />
    <glyph glyph-name="scaron" unicode="&#x161;" horiz-adv-x="444" 
d="M362 334h-26c0 58 -48 102 -105 102s-83 -27 -83 -58c0 -85 246 -95 246 -246c0 -86 -75 -150 -176 -150c-35 0 -59 5 -77 9c-18 5 -30 9 -45 9c-16 0 -28 -6 -33 -14h-26c19 34 11 114 23 167l30 -4c-1 -7 -2 -13 -2 -20c0 -64 66 -103 125 -103c47 0 83 21 83 64
c0 96 -236 108 -236 246c0 96 90 138 167 138c23 0 43 -4 60 -8s31 -8 41 -8c20 0 27 9 28 16h26c-19 -46 -12 -95 -20 -140zM262 522h-79l-125 172h51l113 -101l115 101h49z" />
    <glyph glyph-name="uacute" unicode="&#xfa;" 
d="M573 50v-36c-40 0 -107 -18 -140 -32c-17 14 -31 38 -37 62c-42 -35 -90 -62 -160 -62c-114 0 -150 56 -150 170c0 94 4 148 4 187c0 50 -10 81 -63 81v36c67 0 115 6 153 18h26c-10 -38 -16 -104 -16 -168v-134c0 -83 38 -124 106 -124c40 0 80 24 98 56v198
c0 88 -20 118 -64 118v36c69 0 126 6 150 18h28c-6 -44 -10 -97 -10 -141v-228c0 -47 33 -55 75 -55zM271 522h-52l124 135c25 27 33 43 67 43c26 0 45 -16 45 -38c0 -21 -11 -32 -34 -46z" />
    <glyph glyph-name="ucircumflex" unicode="&#xfb;" 
d="M573 50v-36c-40 0 -107 -18 -140 -32c-17 14 -31 38 -37 62c-42 -35 -90 -62 -160 -62c-114 0 -150 56 -150 170c0 94 4 148 4 187c0 50 -10 81 -63 81v36c67 0 115 6 153 18h26c-10 -38 -16 -104 -16 -168v-134c0 -83 38 -124 106 -124c40 0 80 24 98 56v198
c0 88 -20 118 -64 118v36c69 0 126 6 150 18h28c-6 -44 -10 -97 -10 -141v-228c0 -47 33 -55 75 -55zM257 694h79l125 -172h-51l-113 101l-115 -101h-49z" />
    <glyph glyph-name="udieresis" unicode="&#xfc;" 
d="M573 50v-36c-40 0 -107 -18 -140 -32c-17 14 -31 38 -37 62c-42 -35 -90 -62 -160 -62c-114 0 -150 56 -150 170c0 94 4 148 4 187c0 50 -10 81 -63 81v36c67 0 115 6 153 18h26c-10 -38 -16 -104 -16 -168v-134c0 -83 38 -124 106 -124c40 0 80 24 98 56v198
c0 88 -20 118 -64 118v36c69 0 126 6 150 18h28c-6 -44 -10 -97 -10 -141v-228c0 -47 33 -55 75 -55zM263 606c0 -42 -48 -74 -81 -74c-27 0 -43 18 -43 41c0 42 47 73 80 73c27 0 44 -17 44 -40zM455 606c0 -42 -48 -74 -81 -74c-27 0 -43 18 -43 41c0 42 47 73 80 73
c27 0 44 -17 44 -40z" />
    <glyph glyph-name="ugrave" unicode="&#xf9;" 
d="M573 50v-36c-40 0 -107 -18 -140 -32c-17 14 -31 38 -37 62c-42 -35 -90 -62 -160 -62c-114 0 -150 56 -150 170c0 94 4 148 4 187c0 50 -10 81 -63 81v36c67 0 115 6 153 18h26c-10 -38 -16 -104 -16 -168v-134c0 -83 38 -124 106 -124c40 0 80 24 98 56v198
c0 88 -20 118 -64 118v36c69 0 126 6 150 18h28c-6 -44 -10 -97 -10 -141v-228c0 -47 33 -55 75 -55zM375 522h-52l-150 94c-23 14 -34 25 -34 46c0 22 19 38 45 38c34 0 42 -16 67 -43z" />
    <glyph glyph-name="yacute" unicode="&#xfd;" horiz-adv-x="519" 
d="M226 464v-36c-27 0 -52 -15 -52 -46c0 -28 12 -44 118 -269c92 193 110 219 110 269c0 34 -36 46 -68 46v36c21 0 73 -8 104 -8s83 8 104 8v-36c-60 0 -80 -53 -103 -102l-114 -238c-99 -207 -179 -332 -266 -332c-35 0 -71 19 -71 58c0 25 20 50 46 50
c36 0 41 -32 72 -32c49 0 110 122 127 159l-170 374c-18 39 -35 63 -77 63v36c24 0 85 -8 120 -8s96 8 120 8zM234 522h-52l124 135c25 27 33 43 67 43c26 0 45 -16 45 -38c0 -21 -11 -32 -34 -46z" />
    <glyph glyph-name="ydieresis" unicode="&#xff;" horiz-adv-x="519" 
d="M226 464v-36c-27 0 -52 -15 -52 -46c0 -28 12 -44 118 -269c92 193 110 219 110 269c0 34 -36 46 -68 46v36c21 0 73 -8 104 -8s83 8 104 8v-36c-60 0 -80 -53 -103 -102l-114 -238c-99 -207 -179 -332 -266 -332c-35 0 -71 19 -71 58c0 25 20 50 46 50
c36 0 41 -32 72 -32c49 0 110 122 127 159l-170 374c-18 39 -35 63 -77 63v36c24 0 85 -8 120 -8s96 8 120 8zM226 606c0 -42 -48 -74 -81 -74c-27 0 -43 18 -43 41c0 42 47 73 80 73c27 0 44 -17 44 -40zM418 606c0 -42 -48 -74 -81 -74c-27 0 -43 18 -43 41
c0 42 47 73 80 73c27 0 44 -17 44 -40z" />
    <glyph glyph-name="zcaron" unicode="&#x17e;" horiz-adv-x="519" 
d="M473 470l9 -26c-58 -36 -95 -103 -133 -159l-166 -245h79c174 0 198 60 210 110h28c0 -80 -54 -114 -54 -180c-34 17 -66 30 -131 30h-199c-38 0 -70 -8 -89 -12l-13 24c57 46 112 126 142 170l159 234h-123c-88 0 -124 -33 -124 -100h-28c0 64 10 115 10 133
c0 13 -2 21 -4 33c25 -9 68 -26 128 -26h146c84 0 123 8 153 14zM300 522h-79l-125 172h51l113 -101l115 101h49z" />
    <glyph glyph-name="Delta" unicode="&#x2206;" horiz-adv-x="676" 
d="M639 0h-603v29l273 670l48 12l282 -682v-29zM508 54l-207 513l-203 -513h410z" />
    <glyph glyph-name="Omega" unicode="&#x2126;" horiz-adv-x="775" 
d="M740 156l-28 -156h-256l-9 21c45 85 133 220 132 366c-1 215 -93 290 -193 290c-106 0 -190 -75 -190 -295c0 -140 75 -263 129 -361l-9 -21h-255l-25 156l28 1c23 -65 39 -76 83 -76h107c-70 55 -179 148 -179 309c0 197 136 322 314 322c181 0 310 -119 310 -314
c0 -143 -102 -243 -183 -317h114c44 0 57 9 80 76z" />
    <glyph glyph-name="pi" unicode="&#x3c0;" horiz-adv-x="602" 
d="M547 488l27 -9c-7 -41 -25 -84 -39 -103c-16 -4 -42 -5 -70 -5c-5 -63 -5 -154 -4 -226c0 -62 14 -91 44 -91c21 0 33 10 51 28l13 -24c-26 -45 -73 -71 -114 -71c-56 0 -98 28 -98 134c0 94 5 175 10 253c-60 1 -114 2 -155 2v-16c0 -234 -53 -336 -69 -355
c-21 -8 -47 -16 -65 -18l-8 20c77 96 98 268 98 370c-67 1 -94 -17 -134 -45l-16 26c33 40 71 100 182 99c78 -1 184 -4 284 -4c32 0 46 6 63 35z" />
    <glyph glyph-name="Euro" unicode="&#x20ac;" 
d="M545 565h-22c-11 71 -65 102 -136 102c-120 0 -164 -96 -178 -247h280l-18 -41h-264v-32v-33h236l-18 -42h-216c10 -156 73 -244 179 -244c63 0 123 28 135 102h22l-6 -86c-29 -33 -78 -59 -176 -59c-167 0 -253 100 -270 287h-73l18 42h50c-1 9 -1 25 -1 34
c0 8 0 22 1 31h-68l18 41h53c21 183 92 292 272 292c104 0 152 -30 176 -57z" />
    <glyph glyph-name="estimated" unicode="&#x212e;" horiz-adv-x="876" 
d="M841 337h-653c-4 0 -6 -1 -6 -4v-198c0 -8 4 -16 9 -22c63 -66 150 -108 247 -108c105 0 197 47 260 120h59c-73 -85 -190 -140 -320 -140c-222 0 -403 162 -403 362c0 201 181 363 403 363c224 0 404 -162 404 -363v-10zM693 363v199c0 9 -3 17 -10 24
c-63 62 -149 103 -245 103c-95 0 -183 -42 -246 -107c-6 -6 -10 -15 -10 -24v-195c0 -2 2 -6 6 -6h501c3 0 4 4 4 6z" />
    <glyph glyph-name="partialdiff" unicode="&#x2202;" horiz-adv-x="567" 
d="M278 439h1c48 0 106 -22 138 -69c5 33 9 71 10 110c2 51 -4 107 -27 159c-21 45 -69 89 -130 89c-57 0 -111 -33 -149 -64c-18 -1 -46 48 -35 74c36 22 84 42 151 42c103 0 174 -55 223 -145c43 -79 54 -176 54 -238c0 -79 -14 -179 -51 -255
c-45 -92 -117 -156 -222 -156c-118 0 -196 79 -196 206c0 72 28 133 62 171c40 45 104 76 171 76zM305 395h-1c-39 0 -76 -13 -109 -59c-31 -49 -46 -123 -46 -194c-1 -70 34 -122 93 -122c54 0 92 55 115 106c28 62 40 116 52 198c-13 27 -53 71 -104 71z" />
    <glyph glyph-name="product" unicode="&#x220f;" horiz-adv-x="734" 
d="M704 707v-30c-90 -7 -95 -15 -95 -79v-566c0 -73 7 -82 94 -89v-30h-286v30c81 6 86 11 86 88v603c0 31 -6 35 -38 35h-199c-31 0 -35 -4 -35 -31v-607c0 -72 -1 -81 77 -88v-30h-277v30c85 7 93 15 93 88v567c0 66 -6 72 -97 79v30h677z" />
    <glyph glyph-name="summation" unicode="&#x2211;" horiz-adv-x="588" 
d="M564 114l-47 -206h-488v28l232 343l-227 399v29h483c1 -19 7 -104 13 -173l-31 -7c-10 48 -23 85 -37 108c-14 26 -31 35 -109 35h-188l188 -323l-234 -349h265c92 0 104 4 149 124z" />
    <glyph glyph-name="uni2219" unicode="&#x2219;" horiz-adv-x="296" 
d="M148 296c38 0 68 -31 68 -68s-30 -68 -68 -68s-68 31 -68 68s30 68 68 68z" />
    <glyph glyph-name="radical" unicode="&#x221a;" horiz-adv-x="581" 
d="M566 896l-178 -1051l-24 -12l-227 558l-91 -44l-13 37l174 80l169 -433h2l143 875z" />
    <glyph glyph-name="infinity" unicode="&#x221e;" horiz-adv-x="785" 
d="M735 291v-1c0 -106 -78 -170 -159 -170c-60 0 -114 31 -183 116c-52 -63 -106 -116 -188 -116c-83 0 -156 68 -156 165c0 99 70 169 164 169c76 0 132 -50 184 -115c46 51 96 115 185 115c88 -1 153 -66 153 -163zM213 182h1c60 0 105 56 144 101
c-42 55 -81 110 -149 110c-59 0 -95 -48 -95 -109c0 -56 41 -102 99 -102zM575 393h-1c-63 0 -112 -68 -145 -105c63 -75 98 -106 149 -106c59 0 92 55 92 103c0 65 -39 108 -95 108z" />
    <glyph glyph-name="integral" unicode="&#x222b;" horiz-adv-x="401" 
d="M168 6l-21 413c-18 359 80 437 167 437c29 0 68 -17 68 -52c0 -34 -25 -50 -50 -50c-36 0 -33 54 -56 54c-21 0 -45 -30 -38 -166l19 -385c18 -363 -72 -465 -170 -465c-39 0 -68 25 -68 54c-1 31 29 54 59 54c31 0 30 -59 52 -59c30 0 43 66 38 165z" />
    <glyph glyph-name="approxequal" unicode="&#x2248;" horiz-adv-x="566" 
d="M481 448l42 -39c-31 -58 -78 -100 -137 -100c-41 0 -70 14 -115 40c-30 18 -57 34 -90 34c-46 0 -73 -35 -99 -73l-43 38c31 58 86 100 148 100c49 0 82 -23 109 -38c37 -22 58 -36 91 -36c39 0 66 28 94 74zM481 266l42 -39c-31 -57 -77 -100 -137 -100
c-42 0 -71 15 -115 40c-31 18 -58 34 -90 34c-47 0 -73 -36 -99 -74l-43 39c31 58 87 100 148 100c49 0 82 -23 109 -38c32 -18 56 -36 90 -36c41 0 65 27 95 74z" />
    <glyph glyph-name="notequal" unicode="&#x2260;" horiz-adv-x="566" 
d="M411 512l-42 -92h146v-66h-172l-62 -139h234v-66h-261l-52 -116l-53 22l43 94h-142v66h169l62 139h-231v66h257l51 115z" />
    <glyph glyph-name="lessequal" unicode="&#x2264;" horiz-adv-x="566" 
d="M513 102l-458 225v71l458 224v-77l-390 -181v-2l390 -183v-77zM516 -3h-465v67h465v-67z" />
    <glyph glyph-name="greaterequal" unicode="&#x2265;" horiz-adv-x="566" 
d="M56 622l458 -225v-70l-458 -225v77l389 182v3l-389 181v77zM514 -3h-463v67h463v-67z" />
    <glyph glyph-name="lozenge" unicode="&#x25ca;" horiz-adv-x="590" 
d="M541 339l-207 -412h-79l-206 412l208 414h78zM465 339l-167 344h-4l-169 -343l169 -345h3z" />
    <glyph glyph-name="uni02C9" unicode="&#x2c9;" horiz-adv-x="296" 
d="M304 560h-323v66h323v-66z" />
    <glyph glyph-name="uni00AD" unicode="&#xad;" horiz-adv-x="352" 
d="M42 179v98h268v-98h-268z" />
    <glyph glyph-name="uni03A9" unicode="&#x3a9;" horiz-adv-x="775" 
d="M740 156l-28 -156h-256l-9 21c45 85 133 220 132 366c-1 215 -93 290 -193 290c-106 0 -190 -75 -190 -295c0 -140 75 -263 129 -361l-9 -21h-255l-25 156l28 1c23 -65 39 -76 83 -76h107c-70 55 -179 148 -179 309c0 197 136 322 314 322c181 0 310 -119 310 -314
c0 -143 -102 -243 -183 -317h114c44 0 57 9 80 76z" />
    <glyph glyph-name="uni00A0" unicode="&#xa0;" horiz-adv-x="296" 
 />
    <glyph glyph-name="afii61289" unicode="&#x2113;" horiz-adv-x="444" 
d="M403 128l22 -20c-42 -78 -101 -122 -182 -122c-53 0 -88 15 -110 40c-25 30 -38 63 -38 151v76l-63 -44l-13 27l76 57v135c0 159 10 215 55 267c30 38 65 54 101 54c68 0 100 -64 100 -138c0 -119 -62 -208 -156 -298v-87c0 -134 31 -175 93 -175c49 0 87 36 115 77z
M195 487v-123c55 63 95 151 95 245c0 59 -14 106 -46 106c-38 0 -49 -57 -49 -228z" />
    <glyph glyph-name="uni03BC" unicode="&#x3bc;" 
d="M573 50v-36c-40 0 -107 -18 -140 -32c-17 14 -31 38 -37 62c-42 -35 -98 -62 -154 -62c-20 0 -37 2 -52 6v-120c0 -32 2 -66 8 -104h-53c-40 0 -80 -6 -118 -8v36c44 0 59 20 59 112v435c0 50 -6 81 -59 81v36c67 0 115 6 153 18h26c-10 -38 -16 -104 -16 -168v-134
c0 -83 38 -124 106 -124c36 0 80 24 98 56v198c0 86 -20 118 -64 118v36c69 0 126 6 150 18h28c-6 -44 -10 -97 -10 -141v-228c0 -47 33 -55 75 -55z" />
    <glyph glyph-name="uni2215" unicode="&#x2215;" horiz-adv-x="167" 
d="M265 712h69l-432 -728h-69z" />
    </font>
</defs>
</svg>
